Пришельцы / Les visiteurs (Жан-Мари Пуаре / Jean-Marie Poiré) [1993, Франция, фэнтези, комедия, HDRip] DVO (НТВ+ по заказу НТВ) + Original Fre

Reply to topic
DL-List and Torrent activity
Size:  1.48 GB   |    Registered:  4 years 4 months   |    Completed:  0 times

Seeder not seen: Never

 
   
 
 
Author Message

star21 ®

Gender: Female

Longevity: 4 years 5 months

Posts: 551945

Location: Екатеринбург

Post 01-Dec-2015 14:00

[Quote]

Пришельцы
Les visiteurs

Страна: Франция
Жанр: фэнтези, комедия
Год выпуска: 1993
Продолжительность: 01:46:44-Перевод: Профессиональный (двухголосый закадровый)
НТВ+ по заказу НТВ

Текст читали: Дмитрий Полонский и Ольга Кузнецова
Cубтитры: нет
Оригинальная аудиодорожка: французский-Режиссер: Жан-Мари Пуаре / Jean-Marie Poiré
В ролях: Жан Рено, Кристиан Клавье, Валери Лемерсье, Мари-Анн Шазель, Кристиан Бюжо, Изабель Нанти, Жан-Поль Мюэль, Дидье Пэн, Эрик Аверлан, Теофиль Совье, Пьер Виаль, Мишель Пейрелон, Ариель Семенофф-Описание: Франция, 1123 год. Граф Годфруа де Монмирай, став жертвой проклятия злой колдуньи, убивает отца своей невесты. Годфруа обращается за помощью к великому волшебнику Эвсебиусу, который предлагает графу отправиться по коридорам времени в прошлое, и исправить свою ошибку. Де Монмирай соглашается на это предложение, но из-за ошибки волшебника, он и его слуга попадают в 90-е годы нашего времени. В ХХ веке их ждет много приключений, и встреча со своими потомками…-Доп. информация:
О переводе: Такой перевод есть на трекере и обозначен как НТВ
Отличие:
Мой записан с телеканала ТВЦ (IPTV), тот - с VHS
Запись и синхронизация:-Семплы для сравнения:
мой
vhs-Сэмпл: минута50сек-Качество видео: HDRip (спасибо envy. с рутора)
Формат видео: AVI
Видео: XVID, 720x304, 2,35:1, 24,000 кадра/сек, 1588 Кбит/сек
Аудио 1: AC-3, 48,0 КГц, 192 Кбит/сек, 2 канала (двухголосый НТВ+ по заказу НТВ)
Аудио 2: AC-3, 48,0 КГц, 192 Кбит/сек, 2 канала (французская оригинальная дорожка)

MediaInfo

Общее
Полное имя : Пришельцы.1993.HDRip.НТВ.avi
Формат : AVI
Формат/Информация : Audio Video Interleave
Размер файла : 1,48 Гбайт
Продолжительность : 1 ч. 46 м.
Общий поток : 1986 Кбит/сек
Дата записи : 27.10.2015
Программа кодирования : VirtualDubModRus 1.5.10.2 (build 2542/release)
Библиотека кодирования : VirtualDubMod build 2542/release
Авторское право : mister55555
Примечание : для rutracker.org
Видео
Идентификатор : 0
Формат : MPEG-4 Visual
Профиль формата : Advanced Simple@L5
Параметр BVOP формата : 2
Параметр QPel формата : Нет
Параметр GMC формата : Без точки перехода
Параметр матрицы формата : Выборочная
Идентификатор кодека : XVID
Идентификатор кодека/Подсказка : XviD
Продолжительность : 1 ч. 46 м.
Битрейт : 1588 Кбит/сек
Ширина : 720 пикселей
Высота : 304 пикселя
Соотношение сторон : 2,35:1
Частота кадров : 24,000 кадра/сек
Цветовое пространство : YUV
Субдискретизация насыщенности : 4:2:0
Битовая глубина : 8 бит
Тип развёртки : Прогрессивная
Метод сжатия : С потерями
Бит/(Пиксели*Кадры) : 0.302
Размер потока : 1,18 Гбайт (80%)
Библиотека кодирования : XviD 73
Аудио #1
Идентификатор : 1
Формат : AC-3
Формат/Информация : Audio Coding 3
Расширение режима : CM (complete main)
Параметр Endianness формата : Big
Идентификатор кодека : 2000
Продолжительность : 1 ч. 46 м.
Вид битрейта : Постоянный
Битрейт : 192 Кбит/сек
Каналы : 2 канала
Расположение каналов : Front: L R
Частота : 48,0 КГц
Метод сжатия : С потерями
Размер потока : 147 Мбайт (10%)
Выравнивание : Разделение по промежуткам
Продолжительность промежутка : 42 мс. (1,00 видеокадр)
Время предзагрузки промежутка : 500 мс.
Заголовок : двухголосый НТВ+ по заказу НТВ
Аудио #2
Идентификатор : 2
Формат : AC-3
Формат/Информация : Audio Coding 3
Расширение режима : CM (complete main)
Параметр Endianness формата : Big
Идентификатор кодека : 2000
Продолжительность : 1 ч. 46 м.
Вид битрейта : Постоянный
Битрейт : 192 Кбит/сек
Каналы : 2 канала
Расположение каналов : Front: L R
Частота : 48,0 КГц
Метод сжатия : С потерями
Размер потока : 147 Мбайт (10%)
Выравнивание : Разделение по промежуткам
Продолжительность промежутка : 42 мс. (1,00 видеокадр)
Время предзагрузки промежутка : 500 мс.
Заголовок : оригинал

Скриншоты

To download the content you need:
1. Download and install torrent client [for Windows] or for mobile system
2. Click on [Download]
Attention.
If the test YOU are NOT a ROBOT - does not work, then You are using an outdated browser.
Install the current browser and click on [Download]

Do not work with Yandex browser. Uploading files to them is erroneous.
Security: torrent client is allowed by Kaspersky.

[en.asmlocator.ru].t4634.torrent 
Torrent: Registered [ 2015-12-01 13:55 ] · 123174D3089DA3CC75D978C9D21B0272F0010C0D

Download .torrent

Download

15 KB

Status: checked
Completed: 0 times
Size: 1.48 GB
terms.php
[Profile] [PM]
Display posts:    
Reply to topic

Current time is: 07-Apr 20:27

All times are UTC ± 0



You cannot post new topics in this forum
You cannot reply to topics in this forum
You cannot edit your posts in this forum
You cannot delete your posts in this forum
You cannot vote in polls in this forum
You cannot attach files in this forum
You can download files in this forum
Верим фактам, а не вранью Путина! Факт, что Правительство ведёт Россию к истреблению.
Так как численность населения падает, даже не смотря на приток эмигрантов!
Русская нация вымирает и вырождается, смешиваясь с эмигрантами!
Факт, что военных и граждан предприятий заставляют голосовать за партию Единая Россия и Путина
ПОД СТРАХОМ УВОЛЬНЕНИЯ!
Нам не нужно Правительство, блокирующее личную жизнь, интернет, нарушающее сохранность данных.
Все эти действия финансируются за счёт народа!