Андерсонвилль / Andersonville (Джон Франкенхаймер / John Frankenheimer) [1996, США, драма, военный, исторический, DVDRip] MVO (тк Россия) + AVO (Живов) + Original Eng

Reply to topic
DL-List and Torrent activity
Size:  2.89 GB   |    Registered:  4 years 4 months   |    Completed:  0 times

Seeder not seen: 2 years 10 months

 
   
 
 
Author Message

star21 ®

Gender: Female

Longevity: 4 years 4 months

Posts: 551945

Location: Екатеринбург

Post 01-Dec-2015 14:00

[Quote]

Андерсонвилль / Andersonville
Страна: США
Жанр: драма, военный, исторический
Год выпуска: 1996
Продолжительность: 02:47:42
Перевод: Профессиональный (многоголосый закадровый) - тк Россия
Перевод: Авторский (одноголосый закадровый) - Юрий Живов
Cубтитры: нет
Оригинальная аудиодорожка: английский

Режиссер: Джон Франкенхаймер / John Frankenheimer
В ролях: Джэррод Эмик, Фредерик Форрест, Тед Марко, Кармен Аргензиано, Джэйс Барток, Фредерик Коффин, Клифф Де Янг, Денис Форест, Джастин Хенри, Тони Хиггинс, Крис Кэмм, Эндрю Кэвовит, Олек Крупа, Уильям Мэйси
Описание: Андерсонвилль - лагерь для военнопленных. Находился в Америке в штате Джорджия во время Гражданской войны в США (между Севером и Югом) в 1861-1865 годах ХIХ века.
В концентрационном лагере для военнопленных северян содержатся десятки тысяч людей. Об ужасах, происходящих за стенами этой тюрьмы, можно только догадываться. Начальники лагеря пытают заключенных иногда не для того, чтобы выудить какие-то военные тайны, а просто из садизма. Люди содержатся в палатках и землянках в ужасающих условиях, сопоставимых только с содержанием в сталинских лагерях, пьют грязную воду, а о еде и говорить не приходится... Главный герой и его друзья совершают неудачный побег, каждый день борятся за выживание. Особенно драматично рассказывается о кровавом столкновении с беспредельной группой таких же пленных, как и они, занимающихся на территории лагеря убийствами, грабежом и издевательствами.
-
-
-9:44-11:21, 1:23:54-1:23:58 две сцены (около 3 минут) в многоголосом переводе - заполнены одноголосым-
-
-Качество видео:
Формат видео: AVI
Видео: 704x400 (1.76:1), 23.976 fps, XviD build 73 ~1615 kbps avg, 0.24 bit/pixel
Аудио: 48 kHz, AC3 Dolby Digital, 2/0 (L,R) ch, ~192 kbps - многоголосый
Аудио: 48 kHz, AC3 Dolby Digital, 2/0 (L,R) ch, ~192 kbps - авторский
Аудио: 48 kHz, AC3 Dolby Digital, 3/2 (L,C,R,l,r) + LFE ch, ~448 kbps - оригинал

MediaInfo

Общее
Полное имя : H:\Andersonville.1996.dvdrip_[2.91]_[teko].avi
Формат : AVI
Формат/Информация : Audio Video Interleave
Профиль формата : OpenDML
Размер файла : 2,89 Гбайт
Продолжительность : 2 ч. 47 м.
Общий поток : 2464 Кбит/сек
Программа кодирования : VirtualDubMod 1.5.10.3 | www.virtualdub-fr.org || (build 2550/release)
Библиотека кодирования : VirtualDubMod build 2550/release
Видео
Идентификатор : 0
Формат : MPEG-4 Visual
Профиль формата : Advanced Simple@L5
Параметр BVOP формата : 1
Параметр QPel формата : Нет
Параметр GMC формата : Без точки перехода
Параметр матрицы формата : Выборочная
Идентификатор кодека : XVID
Идентификатор кодека/Подсказка : XviD
Продолжительность : 2 ч. 47 м.
Битрейт : 1611 Кбит/сек
Ширина : 704 пикселя
Высота : 400 пикселей
Соотношение сторон : 16:9
Частота кадров : 23,976 кадра/сек
Цветовое пространство : YUV
Субдискретизация насыщенности : 4:2:0
Битовая глубина : 8 бит
Тип развёртки : Прогрессивная
Метод сжатия : С потерями
Бит/(Пиксели*Кадры) : 0.239
Размер потока : 1,89 Гбайт (65%)
Библиотека кодирования : XviD 73
Аудио #1
Идентификатор : 1
Формат : AC-3
Формат/Информация : Audio Coding 3
Расширение режима : CM (complete main)
Параметр Endianness формата : Big
Идентификатор кодека : 2000
Продолжительность : 2 ч. 47 м.
Вид битрейта : Постоянный
Битрейт : 192 Кбит/сек
Каналы : 2 канала
Расположение каналов : Front: L R
Частота : 48,0 КГц
Битовая глубина : 16 бит
Метод сжатия : С потерями
Размер потока : 230 Мбайт (8%)
Выравнивание : Разделение по промежуткам
Продолжительность промежутка : 42 мс. (1,00 видеокадр)
Время предзагрузки промежутка : 500 мс.
Аудио #2
Идентификатор : 2
Формат : AC-3
Формат/Информация : Audio Coding 3
Расширение режима : CM (complete main)
Параметр Endianness формата : Big
Идентификатор кодека : 2000
Продолжительность : 2 ч. 47 м.
Вид битрейта : Постоянный
Битрейт : 192 Кбит/сек
Каналы : 2 канала
Расположение каналов : Front: L R
Частота : 48,0 КГц
Битовая глубина : 16 бит
Метод сжатия : С потерями
Задержка видео : 11 с.
Размер потока : 230 Мбайт (8%)
Выравнивание : Разделение по промежуткам
Продолжительность промежутка : 42 мс. (1,00 видеокадр)
Время предзагрузки промежутка : 500 мс.
Аудио #3
Идентификатор : 3
Формат : AC-3
Формат/Информация : Audio Coding 3
Расширение режима : CM (complete main)
Параметр Endianness формата : Big
Идентификатор кодека : 2000
Продолжительность : 2 ч. 47 м.
Вид битрейта : Постоянный
Битрейт : 448 Кбит/сек
Каналы : 6 каналов
Расположение каналов : Front: L C R, Side: L R, LFE
Частота : 48,0 КГц
Битовая глубина : 16 бит
Метод сжатия : С потерями
Задержка видео : 11 с.
Размер потока : 537 Мбайт (18%)
Выравнивание : Разделение по промежуткам
Продолжительность промежутка : 42 мс. (1,00 видеокадр)
Время предзагрузки промежутка : 500 мс.
Релиз группы:
-
-

To download the content you need:
1. Download and install torrent client [for Windows] or for mobile system
2. Click on [Download]
Attention.
If the test YOU are NOT a ROBOT - does not work, then You are using an outdated browser.
Install the current browser and click on [Download]

Do not work with Yandex browser. Uploading files to them is erroneous.
Security: torrent client is allowed by Kaspersky.

[en.asmlocator.ru].t4632.torrent 
Torrent: Registered [ 2015-12-01 13:55 ] · E3E9BD702BCC4481DFBF8B730AD20526F9B3C25C

Download .torrent

Download

15 KB

Status: checked
Completed: 0 times
Size: 2.89 GB
terms.php
[Profile] [PM]
Display posts:    
Reply to topic

Current time is: 03-Apr 10:15

All times are UTC ± 0



You cannot post new topics in this forum
You cannot reply to topics in this forum
You cannot edit your posts in this forum
You cannot delete your posts in this forum
You cannot vote in polls in this forum
You cannot attach files in this forum
You can download files in this forum
Верим фактам, а не вранью Путина! Факт, что Правительство ведёт Россию к истреблению.
Так как численность населения падает, даже не смотря на приток эмигрантов!
Русская нация вымирает и вырождается, смешиваясь с эмигрантами!
Факт, что военных и граждан предприятий заставляют голосовать за партию Единая Россия и Путина
ПОД СТРАХОМ УВОЛЬНЕНИЯ!
Нам не нужно Правительство, блокирующее личную жизнь, интернет, нарушающее сохранность данных.
Все эти действия финансируются за счёт народа!