Зона молчания / Бег тени / Shadow Run (Джеффри Рив / Geoffrey Reeve) [1998, Великобритания, криминал, драма, DVDRip] AVO (Андрей Гаврилов)

Reply to topic
DL-List and Torrent activity
Size:  1.43 GB   |    Registered:  4 years 3 months   |    Completed:  0 times

Seeder not seen: 2 years

 
   
 
 
Author Message

star21 ®

Gender: Female

Longevity: 4 years 4 months

Posts: 551945

Location: Екатеринбург

Post 01-Dec-2015 14:00

[Quote]

Зона молчания / Бег тени / Shadow Run
Страна: Великобритания
Жанр: криминал, драма
Год выпуска: 1998
Продолжительность: 01:31:54
Перевод: Авторский (одноголосый закадровый) Андрей Гаврилов
Cубтитры: нет
Оригинальная аудиодорожка: нет
Режиссер: Джеффри Рив / Geoffrey Reeve
В ролях: Майкл Кейн, Джеймс Фокс, Рэй Бэйкер, Кеннет Колли, Кристофер Кейзнов, Руперт Фрейзер
Описание: Мистер Хаскелл грабил инкассаторские фургоны. Это не были примитивные вооруженные налеты: каждое дело тщательно планировалось, чтобы исключить провал.
При подготовке очередного ограбления выяснилось, что мобильная связь, которой пользовались будущие жертвы, имела мёртвую зону.
И вся операция должна пройти за 20 минут. Нужно только, чтобы фургон оказался в зоне молчания…
Доп. информация:
Видеоряд от cinematik предоставлен edich2, за что ему огромное спасибо.
За звуковую дорожку с переводом А. Гаврилова большая благодарность серый75.
Данный фильм впервые на трекере!
Сэмпл: https://www.sendspace.com/file/6ycynw
Качество видео: DVDRip
Формат видео: AVI
Видео: 640x480, 23.976 fps, MPEG-4 Visual, 1969 Kbps, XviD 1.2.1
Аудио: 48 KHz, AC3, 2 ch, 256 Kbps

MediaInfo

General
Complete name : C:\Users\Зона молчания.avi
Format : AVI
Format/Info : Audio Video Interleave
File size : 1.43 GiB
Duration : 1h 31mn
Overall bit rate : 2 233 Kbps
Writing application : VirtualDubMod 1.5.10.2 (build 2540/release)
Writing library : VirtualDubMod build 2540/release
Video
ID : 0
Format : MPEG-4 Visual
Format profile : Advanced Simple@L5
Format settings, BVOP : 1
Format settings, QPel : No
Format settings, GMC : No warppoints
Format settings, Matrix : Default (MPEG)
Codec ID : XVID
Codec ID/Hint : XviD
Duration : 1h 31mn
Bit rate : 1 969 Kbps
Width : 640 pixels
Height : 480 pixels
Display aspect ratio : 4:3
Frame rate : 23.976 fps
Color space : YUV
Chroma subsampling : 4:2:0
Bit depth : 8 bits
Scan type : Progressive
Compression mode : Lossy
Bits/(Pixel*Frame) : 0.267
Stream size : 1.26 GiB (88%)
Writing library : XviD 1.2.1 (UTC 2008-12-04)
Audio
ID : 1
Format : AC-3
Format/Info : Audio Coding 3
Mode extension : CM (complete main)
Format settings, Endianness : Big
Codec ID : 2000
Duration : 1h 31mn
Bit rate mode : Constant
Bit rate : 256 Kbps
Channel(s) : 2 channels
Channel positions : Front: L R
Sampling rate : 48.0 KHz
Bit depth : 16 bits
Compression mode : Lossy
Stream size : 168 MiB (11%)
Alignment : Split accross interleaves
Interleave, duration : 42 ms (1.00 video frame)
Interleave, preload duration : 500 ms

Скриншоты

To download the content you need:
1. Download and install torrent client [for Windows] or for mobile system
2. Click on [Download]
Attention.
If the test YOU are NOT a ROBOT - does not work, then You are using an outdated browser.
Install the current browser and click on [Download]

Do not work with Yandex browser. Uploading files to them is erroneous.
Security: torrent client is allowed by Kaspersky.

[en.asmlocator.ru].t4629.torrent 
Torrent: Registered [ 2015-12-01 13:55 ] · BA730054A01ED148DA4B67FC88F026635F136FE9

Download .torrent

Download

15 KB

Status: checked
Completed: 0 times
Size: 1.43 GB
terms.php
[Profile] [PM]
Display posts:    
Reply to topic

Current time is: 31-Mar 16:58

All times are UTC ± 0



You cannot post new topics in this forum
You cannot reply to topics in this forum
You cannot edit your posts in this forum
You cannot delete your posts in this forum
You cannot vote in polls in this forum
You cannot attach files in this forum
You can download files in this forum
Верим фактам, а не вранью Путина! Факт, что Правительство ведёт Россию к истреблению.
Так как численность населения падает, даже не смотря на приток эмигрантов!
Русская нация вымирает и вырождается, смешиваясь с эмигрантами!
Факт, что военных и граждан предприятий заставляют голосовать за партию Единая Россия и Путина
ПОД СТРАХОМ УВОЛЬНЕНИЯ!
Нам не нужно Правительство, блокирующее личную жизнь, интернет, нарушающее сохранность данных.
Все эти действия финансируются за счёт народа!