Чужой 4: Воскрешение / Alien: Resurrection (Жан-Пьер Жёне / Jean-Pierre Jeunet) [1997, США, ужасы, фантастика, боевик, триллер, VHSRip] [Театральная версия] [FullScreen] MVO (Премьер)

Reply to topic
DL-List and Torrent activity
Size:  1.46 GB   |    Registered:  4 years 4 months   |    Completed:  0 times

Seeder not seen: Never

 
   
 
 
Author Message

star21 ®

Gender: Female

Longevity: 4 years 4 months

Posts: 551945

Location: Екатеринбург

Post 01-Dec-2015 14:00

[Quote]

Чужой 4: Воскрешение / Alien: Resurrection
[Театральная версия - FullScreen]
Страна: США
Жанр: ужасы, фантастика, боевик, триллер
Год выпуска: 1997
Продолжительность: 01:44:15
Перевод: Профессиональный (многоголосый закадровый) Премьер
Cубтитры: нет
Режиссер: Жан-Пьер Жёне / Jean-Pierre Jeunet
В ролях: Сигурни Уивер, Вайнона Райдер, Рон Перлман, Доминик Пинон, Майкл Уинкотт, Брэд Дуриф, Дж.Э. Фримен, Рэймонд Крус, Гари Дурдан, Лиленд Орсер, Ким Флауэрс, Дэн Хедайя
Описание: Касса мирового проката - 160,5 млн. долларов.
Спустя 200 лет со дня гибели лейтенанта Рипли. Военные ученые, в погоне за созданием совершенного оружия, возвращают ее к жизни методом клонирования. Кровь Рипли несет в себе образцы ДНК "чужих", и военные хотят заставить ее родить им ребенка – наполовину человека, наполовину "чужого". Как бы не хотела Рипли прервать этот эксперимент, детеныш появляется на свет и сразу же показывает свой кровожадный характер. Очень быстро он превращается в огромного монстра и начинает размножаться, откладывая личинки в самых труднодоступных местах. Все это происходит на возвращающимся на Землю космическом корабле. И если корабль доберется до Земли раньше, чем будут уничтожены все твари, то под угрозой истребления оказывается население целой планеты.
Теперь от того сможет ли Рипли убить всех своих отпрысков, зависит судьба миллиардов жителей Земли.
Доп. информация: Оцифровка лицензионной VHS (личный архив) и получение VHSRip alenavova
Эксклюзив для rutracker.org. При размещении данного релиза на других сайтах ссылка на автора alenavova обязательна.

Релиз
Сэмпл: https://yadi.sk/i/_zGFY7O0k8hwA
Качество видео: VHSRip
Формат видео: AVI
Видео: 704x528 (1.33:1), 25 fps, XviD build 50 ~1806 kbps avg, 0.19 bit/pixel
Аудио: 48 kHz, AC3 Dolby Digital, 2/0 (L,R) ch, ~192 kbps

MediaInfo

Чужой-4 - Alien. Resurrection (by alenavova).avi
Format : AVI
Format/Info : Audio Video Interleave
File size : 1.46 GiB
Duration : 1h 44mn
Overall bit rate : 2 009 Kbps
Movie name : Чужой-4 - Alien. Resurrection (by alenavova)
Director : by alenavova
Writing application : VirtualDubMod 1.5.10.3 | www.virtualdub-fr.org || (build 2550/release)
Copyright : Edich2
Comment : RuTracker.org
Video
ID : 0
Format : MPEG-4 Visual
Format profile : Advanced Simple@L5
Format settings, BVOP : 1
Format settings, QPel : No
Format settings, GMC : No warppoints
Format settings, Matrix : Custom
Codec ID : XVID
Codec ID/Hint : XviD
Duration : 1h 44mn
Bit rate : 1 807 Kbps
Width : 704 pixels
Height : 528 pixels
Display aspect ratio : 4:3
Frame rate : 25.000 fps
Color space : YUV
Chroma subsampling : 4:2:0
Bit depth : 8 bits
Scan type : Progressive
Compression mode : Lossy
Bits/(Pixel*Frame) : 0.194
Stream size : 1.32 GiB (90%)
Writing library : XviD 1.2.1 (UTC 2008-12-04)
Audio
ID : 1
Format : AC-3
Format/Info : Audio Coding 3
Mode extension : CM (complete main)
Format settings, Endianness : Big
Codec ID : 2000
Duration : 1h 44mn
Bit rate mode : Constant
Bit rate : 192 Kbps
Channel(s) : 2 channels
Channel positions : Front: L R
Sampling rate : 48.0 KHz
Bit depth : 16 bits
Compression mode : Lossy
Stream size : 143 MiB (10%)
Alignment : Split accross interleaves
Interleave, duration : 40 ms (1.00 video frame)
Interleave, preload duration : 500 ms

Скриншоты



To download the content you need:
1. Download and install torrent client [for Windows] or for mobile system
2. Click on [Download]
Attention.
If the test YOU are NOT a ROBOT - does not work, then You are using an outdated browser.
Install the current browser and click on [Download]

Do not work with Yandex browser. Uploading files to them is erroneous.
Security: torrent client is allowed by Kaspersky.

[en.asmlocator.ru].t4625.torrent 
Torrent: Registered [ 2015-12-01 13:55 ] · 16188F30140DB7F72E2E62F74493B2D31EF35418

Download .torrent

Download

15 KB

Status: checked
Completed: 0 times
Size: 1.46 GB
terms.php
[Profile] [PM]
Display posts:    
Reply to topic

Current time is: 05-Apr 04:19

All times are UTC ± 0



You cannot post new topics in this forum
You cannot reply to topics in this forum
You cannot edit your posts in this forum
You cannot delete your posts in this forum
You cannot vote in polls in this forum
You cannot attach files in this forum
You can download files in this forum
Верим фактам, а не вранью Путина! Факт, что Правительство ведёт Россию к истреблению.
Так как численность населения падает, даже не смотря на приток эмигрантов!
Русская нация вымирает и вырождается, смешиваясь с эмигрантами!
Факт, что военных и граждан предприятий заставляют голосовать за партию Единая Россия и Путина
ПОД СТРАХОМ УВОЛЬНЕНИЯ!
Нам не нужно Правительство, блокирующее личную жизнь, интернет, нарушающее сохранность данных.
Все эти действия финансируются за счёт народа!