Лакомый кусок / The Big Slice (Джон Брэдшоу / John Bradshaw) [1991, США, Канада, Криминальная комедия, DVDRip] AVO (Юрий Живов)

Reply to topic
DL-List and Torrent activity
Size:  1.37 GB   |    Registered:  4 years 4 months   |    Completed:  0 times

Seeder not seen: 1 year 9 months

 
   
 
 
Author Message

star21 ®

Gender: Female

Longevity: 4 years 4 months

Posts: 551945

Location: Екатеринбург

Post 01-Dec-2015 13:59

[Quote]

Лакомый кусок / The Big Slice
Страна: США, Канада
Жанр: Криминальная комедия
Год выпуска: 1991
Продолжительность: 01:25:38
Перевод: Авторский (одноголосый закадровый) Юрий Живов
Cубтитры: нет
Режиссер: Джон Брэдшоу / John Bradshaw
В ролях: Кэйси Семашко, Лесли Хоуп, Луис Феррейра, Кеннет Уэлш, Николас Кэмпбелл, Хэзер Локлир, Генри Рамер, Брюс МакФи, Франсуа Кланфер, Майкл Коупмен
Описание: Аннотация от alenavova
Два молодых журналиста, жаждущих славы и подсчитывающих доходы от неизданной и даже ненаписанной книги. Две молодых девушки, подрабатывающих беспорядочными половыми связями...по телефону. Трое полицейских, выслеживающих мафиози, и два преступника, за которыми как раз гоняется полиция. Главарь банды Ник Пападопулос, тяжело раненный и неожиданно спасенный. Чемоданчик, в котором полмиллиона долларов. И труп на парковой скамейке. Вот и названы все главные герои гангстерской комедии. А началась история с того, что в машине Майка и Энди сумел "уйти" от полицейской погони труп гангстера, участника ограбления, после чего Майк, один из вышеупомянутых молодых журналистов, "переквалифицировался" в квартирного воришку, а Энди стал стажером в бригаде полицейских. И того, и другого судьба сводит с Ником... Неужели все великие романы создаются с риском для жизни?
Доп. информация: Дорожка с Ю. Живовым ремастерирована, синхронизирована и наложена ale_x2008 при помощи iZotope RX2, Sony Vegas и VirtualDubMod.
За оцифрованную с VHS дорожку благодарим - alenavova

Релиз
Сэмпл: https://yadi.sk/i/qtzu0qOrkAdnZ
Качество видео: DVDRip
Формат видео: AVI
Видео: XviD MPEG-4, 656x496 (1.32:1), 23.976 fps, 2022 kbps avg, 0.26 bit/pixel
Аудио: AC3 Dolby Digital, 48000Hz, 2/0 (L,R) ch (mono), 256.00 kbps avg

MediaInfo

Лакомый кусок - The Big Slice [by ale_x2008].avi
Format : AVI
Format/Info : Audio Video Interleave
File size : 1.37 GiB
Duration : 1h 25mn
Overall bit rate : 2 288 Kbps
Movie name : Лакомый кусок - The Big Slice [by ale_x2008]
Director : by ale_x2008
Writing application : VirtualDubMod 1.5.10.2 (build 2540/release)
Copyright : Edich2
Comment : RuTracker.org
Video
ID : 0
Format : MPEG-4 Visual
Format profile : Advanced Simple@L5
Format settings, BVOP : 1
Format settings, QPel : No
Format settings, GMC : No warppoints
Format settings, Matrix : Custom
Codec ID : XVID
Codec ID/Hint : XviD
Duration : 1h 25mn
Bit rate : 2 023 Kbps
Width : 656 pixels
Height : 496 pixels
Display aspect ratio : 4:3
Frame rate : 23.976 fps
Color space : YUV
Chroma subsampling : 4:2:0
Bit depth : 8 bits
Scan type : Progressive
Compression mode : Lossy
Bits/(Pixel*Frame) : 0.259
Stream size : 1.21 GiB (88%)
Writing library : XviD 1.2.1 (UTC 2008-12-04)
Audio
ID : 1
Format : AC-3
Format/Info : Audio Coding 3
Mode extension : CM (complete main)
Format settings, Endianness : Big
Codec ID : 2000
Duration : 1h 25mn
Bit rate mode : Constant
Bit rate : 256 Kbps
Channel(s) : 2 channels
Channel positions : Front: L R
Sampling rate : 48.0 KHz
Bit depth : 16 bits
Compression mode : Lossy
Stream size : 157 MiB (11%)
Alignment : Split accross interleaves
Interleave, duration : 42 ms (1.00 video frame)
Interleave, preload duration : 500 ms

Скриншоты


To download the content you need:
1. Download and install torrent client [for Windows] or for mobile system
2. Click on [Download]
Attention.
If the test YOU are NOT a ROBOT - does not work, then You are using an outdated browser.
Install the current browser and click on [Download]

Do not work with Yandex browser. Uploading files to them is erroneous.
Security: torrent client is allowed by Kaspersky.

[en.asmlocator.ru].t4619.torrent 
Torrent: Registered [ 2015-12-01 13:55 ] · C35665796B7D20E952C4BF8D0D0853F92DFDFB2F

Download .torrent

Download

14 KB

Status: checked
Completed: 0 times
Size: 1.37 GB
terms.php
[Profile] [PM]
Display posts:    
Reply to topic

Current time is: 04-Apr 15:44

All times are UTC ± 0



You cannot post new topics in this forum
You cannot reply to topics in this forum
You cannot edit your posts in this forum
You cannot delete your posts in this forum
You cannot vote in polls in this forum
You cannot attach files in this forum
You can download files in this forum
Верим фактам, а не вранью Путина! Факт, что Правительство ведёт Россию к истреблению.
Так как численность населения падает, даже не смотря на приток эмигрантов!
Русская нация вымирает и вырождается, смешиваясь с эмигрантами!
Факт, что военных и граждан предприятий заставляют голосовать за партию Единая Россия и Путина
ПОД СТРАХОМ УВОЛЬНЕНИЯ!
Нам не нужно Правительство, блокирующее личную жизнь, интернет, нарушающее сохранность данных.
Все эти действия финансируются за счёт народа!