Взрыв из прошлого / Blast from the Past (Хью Уилсон / Hugh Wilson) [1999, США, Комедия, мелодрама, VHSRip] [FullScreen] Dub (Мосфильм)

Reply to topic
DL-List and Torrent activity
Size:  1.37 GB   |    Registered:  4 years 4 months   |    Completed:  2 times

Seeder not seen: 45 minutes

 
   
 
 
Author Message

star21 ®

Gender: Female

Longevity: 4 years 4 months

Posts: 551945

Location: Екатеринбург

Post 01-Dec-2015 13:59

[Quote]

Взрыв из прошлого / Blast from the Past
[FullScreen]
Страна: США
Жанр: Комедия, мелодрама
Год выпуска: 1999
Продолжительность: 01:38:30
Перевод: Профессиональный (дублированный) Мосфильм | WEST VIDEO
Cубтитры: нет
Режиссер: Хью Уилсон / Hugh Wilson
В ролях: Брендан Фрэйзер, Алисия Сильверстоун, Кристофер Уокен, Хью Уилсон, Джон Розелиус, Донован Скотт, Рекс Линн, Джоуи Злотник, Сисси Спэйсек, Йессо Дон, Дэйв Фоули, Дэйл Рауль, Синтия Мэйс, Гарри С. Мерфи, Уэндел Мелдурм, Билл Граттон
Описание: На редкость приятная, добрая, очень смешная и увлекательная комедия, из разряда тех, после которых становится жаль, что фильм закончился.
Действие начинается в 1962 году во время Карибского кризиса, когда президент Кеннеди объявил об угрозе ядерного удара со стороны Советского Союза. Вся Америка была помешана на строительстве бомбоубежищ. Отец главного героя (Уокен), талантливый изобретатель и ученый, построил под землей огромное бомбоубежище с жизненными припасами, обеспечивающими комфорт и удобства на 35 лет и вместе с беременной женой (Спэйсек) спустился в него. Случилось так, что на их дом упал военный самолет. Произошел сильный взрыв. Ученый был уверен, что началась атомная война… В бомбоубежище у него родился сын, мать назвала его Адамом. Папа дал сыну блестящее образование и воспитание, включая бокс и танцы. Через 35 лет сработала автоматика дверей, и папа вышел наружу. Увидев, что творится ночью в современном мире (на месте его домика находился прокат порнокассет), он в ужасе вернулся обратно, рассказав семье о мутантах, деградировавших оборванцах, покрытых татуировками, загрязнении, загазованности и пр. Когда папе стало плохо с сердцем, мама послала сына закупить припасов еще на три года, так как именно через это время по расчетам отца можно будет выйти наружу. Она сочла возможным, чтобы сын привел с собой девушку, если та не будет мутанткой. Итак, Адам (только Брендан Фрэйзер мог так великолепно сыграть эту роль) с манерами начала 60-х отправляется в современный мир... Он должен найти свою Еву (Сильверстоун). И он находит ее...
Очень хорошая комедия, и смотреть ее можно всей семьей. Настоятельно рекомендую. (Иванов М.)
Доп. информация: Оцифровка лицензионной VHS (личный архив) и получение VHSRip alenavova
Эксклюзив для rutracker.org. При размещении данного релиза на других сайтах ссылка на автора alenavova обязательна.

Релиз
Сэмпл: https://yadi.sk/i/cekyz0I2kB2uG
Качество видео: VHSRip
Формат видео: AVI
Видео: 704x528 (1.33:1), 25 fps, XviD build 50 ~1785 kbps avg, 0.19 bit/pixel
Аудио: 48 kHz, AC3 Dolby Digital, 2/0 (L,R) ch, ~192 kbps

MediaInfo

Взрыв из прошлого Blast from the Past (by alenavova).avi
Format : AVI
Format/Info : Audio Video Interleave
File size : 1.37 GiB
Duration : 1h 38mn
Overall bit rate : 1 987 Kbps
Movie name : Взрыв из прошлого Blast from the Past (by alenavova)
Director : by alenavova
Writing application : VirtualDubMod 1.5.10.3 | www.virtualdub-fr.org || (build 2550/release)
Copyright : Edich2
Comment : RuTracker.org
Video
ID : 0
Format : MPEG-4 Visual
Format profile : Advanced Simple@L5
Format settings, BVOP : 1
Format settings, QPel : No
Format settings, GMC : No warppoints
Format settings, Matrix : Custom
Codec ID : XVID
Codec ID/Hint : XviD
Duration : 1h 38mn
Bit rate : 1 786 Kbps
Width : 704 pixels
Height : 528 pixels
Display aspect ratio : 4:3
Frame rate : 25.000 fps
Color space : YUV
Chroma subsampling : 4:2:0
Bit depth : 8 bits
Scan type : Progressive
Compression mode : Lossy
Bits/(Pixel*Frame) : 0.192
Stream size : 1.23 GiB (90%)
Writing library : XviD 1.2.1 (UTC 2008-12-04)
Audio
ID : 1
Format : AC-3
Format/Info : Audio Coding 3
Mode extension : CM (complete main)
Format settings, Endianness : Big
Codec ID : 2000
Duration : 1h 38mn
Bit rate mode : Constant
Bit rate : 192 Kbps
Channel(s) : 2 channels
Channel positions : Front: L R
Sampling rate : 48.0 KHz
Bit depth : 16 bits
Compression mode : Lossy
Stream size : 135 MiB (10%)
Alignment : Split accross interleaves
Interleave, duration : 40 ms (1.00 video frame)
Interleave, preload duration : 500 ms

Скриншоты



To download the content you need:
1. Download and install torrent client [for Windows] or for mobile system
2. Click on [Download]
Attention.
If the test YOU are NOT a ROBOT - does not work, then You are using an outdated browser.
Install the current browser and click on [Download]

Do not work with Yandex browser. Uploading files to them is erroneous.
Security: torrent client is allowed by Kaspersky.

[en.asmlocator.ru].t4618.torrent 
Torrent: Registered [ 2015-12-01 13:55 ] · BECFF08F0364A1EDED0914A656FAA4408A4A8877

Download .torrent

Download

14 KB

Status: checked
Completed: 2 times
Size: 1.37 GB
terms.php
[Profile] [PM]
Display posts:    
Reply to topic

Current time is: 05-Apr 02:40

All times are UTC ± 0



You cannot post new topics in this forum
You cannot reply to topics in this forum
You cannot edit your posts in this forum
You cannot delete your posts in this forum
You cannot vote in polls in this forum
You cannot attach files in this forum
You can download files in this forum
Верим фактам, а не вранью Путина! Факт, что Правительство ведёт Россию к истреблению.
Так как численность населения падает, даже не смотря на приток эмигрантов!
Русская нация вымирает и вырождается, смешиваясь с эмигрантами!
Факт, что военных и граждан предприятий заставляют голосовать за партию Единая Россия и Путина
ПОД СТРАХОМ УВОЛЬНЕНИЯ!
Нам не нужно Правительство, блокирующее личную жизнь, интернет, нарушающее сохранность данных.
Все эти действия финансируются за счёт народа!