Компания Хьюго / Hugo Pool (Роберт Дауни Ст. / Robert Downey Sr.) [1997, США, мелодрама, комедия, DVDRip] AVO (Визгунов) + Original Eng

Reply to topic
DL-List and Torrent activity
Size:  1.46 GB   |    Registered:  4 years 3 months   |    Completed:  0 times

Seeder not seen: Never

 
   
 
 
Author Message

star21 ®

Gender: Female

Longevity: 4 years 4 months

Posts: 551945

Location: Екатеринбург

Post 01-Dec-2015 13:59

[Quote]

Компания Хьюго / Hugo Pool
Страна: США
Жанр: мелодрама, комедия
Год выпуска: 1997
Продолжительность: 01:33:41
Перевод: Авторский (одноголосый закадровый) Сергей Визгунов
Cубтитры: нет
Оригинальная аудиодорожка: английский
Режиссер: Роберт Дауни Ст. /Robert Downey Sr.
В ролях: Алисса Милано, Марк Бун Джуниор, Малкольм МакДауэлл, Брендан Доусон, Шон Пенн, Роберт Дауни мл., Кэти Мориарти, Патрик Демпси, Шон Гленн, Берт Ремсен
Описание: Этот день Хьюго запомнила на всю жизнь. С самого утра в Лос-Анджелесе стояла дикая жара. Население медленно сходило с ума. Многие возлагали надежды только на Хьюго — ведь именно она взяла на себя заботу о бассейнах многих обитателей голливудского рая. А американец без собственного бассейна — что русский без водки.
Вот и начался для Хьюго долгий, долгий рабочий день. Безумный папаша. Мать, помешанная на тотализаторе. Голландский режиссер, накануне открывший огонь прямо на съемочной площадке. Итальянский мафиози, кайфующий от членовредительства. Все эти люди, — в чем-то смешные, в чем-то несчастные — встретились сегодня на пути Хьюго и навсегда изменили ее жизнь.
Доп. информация: За перевод Сергея Визгунова спасибо anuta152006 и TiTBiT.
Сэмпл: http://multi-up.com/1073888

Качество видео: DVDRip -
Формат видео: AVI
Видео: 704x384 (1.83:1), 23.976 fps, XviD, 1832 kbps avg, 0.28 bit/pixel
Аудио 1: 48 kHz, AC3 Dolby Digital, 2/0 (L,R) ch, 192 kbps, AVO (Визгунов)
Аудио 2: 48 kHz, AC3 Dolby Digital, 2/0 (L,R) ch, 192 kbps, Original (Eng)

MediaInfo

Общее
Полное имя : E:\Раздачи\rutracker.org\Kompanija_Hugo_1.46_by_max1wq.avi
Формат : AVI
Формат/Информация : Audio Video Interleave
Размер файла : 1,46 Гбайт
Продолжительность : 1 ч. 33 м.
Общий поток : 2231 Кбит/сек
Программа кодирования : VirtualDubMod 1.5.10.2 (build 2540/release)
Библиотека кодирования : VirtualDubMod build 2540/release
Видео
Идентификатор : 0
Формат : MPEG-4 Visual
Профиль формата : Advanced Simple@L5
Параметр BVOP формата : 1
Параметр QPel формата : Нет
Параметр GMC формата : Без точки перехода
Параметр матрицы формата : Выборочная
Идентификатор кодека : XVID
Идентификатор кодека/Подсказка : XviD
Продолжительность : 1 ч. 33 м.
Битрейт : 1833 Кбит/сек
Ширина : 704 пикселя
Высота : 384 пикселя
Соотношение сторон : 1,85:1
Частота кадров : 23,976 кадра/сек
Цветовое пространство : YUV
Субдискретизация насыщенности : 4:2:0
Битовая глубина : 8 бит
Тип развёртки : Прогрессивная
Метод сжатия : С потерями
Бит/(Пиксели*Кадры) : 0.283
Размер потока : 1,20 Гбайт (82%)
Библиотека кодирования : XviD 73
Аудио #1
Идентификатор : 1
Формат : AC-3
Формат/Информация : Audio Coding 3
Расширение режима : CM (complete main)
Параметр Endianness формата : Big
Идентификатор кодека : 2000
Продолжительность : 1 ч. 33 м.
Вид битрейта : Постоянный
Битрейт : 192 Кбит/сек
Каналы : 2 канала
Расположение каналов : Front: L R
Частота : 48,0 КГц
Метод сжатия : С потерями
Размер потока : 129 Мбайт (9%)
Выравнивание : Разделение по промежуткам
Продолжительность промежутка : 42 мс. (1,00 видеокадр)
Время предзагрузки промежутка : 500 мс.
Аудио #2
Идентификатор : 2
Формат : AC-3
Формат/Информация : Audio Coding 3
Расширение режима : CM (complete main)
Параметр Endianness формата : Big
Идентификатор кодека : 2000
Продолжительность : 1 ч. 33 м.
Вид битрейта : Постоянный
Битрейт : 192 Кбит/сек
Каналы : 2 канала
Расположение каналов : Front: L R
Частота : 48,0 КГц
Метод сжатия : С потерями
Размер потока : 129 Мбайт (9%)
Выравнивание : Разделение по промежуткам
Продолжительность промежутка : 42 мс. (1,00 видеокадр)
Время предзагрузки промежутка : 500 мс.

To download the content you need:
1. Download and install torrent client [for Windows] or for mobile system
2. Click on [Download]
Attention.
If the test YOU are NOT a ROBOT - does not work, then You are using an outdated browser.
Install the current browser and click on [Download]

Do not work with Yandex browser. Uploading files to them is erroneous.
Security: torrent client is allowed by Kaspersky.

[en.asmlocator.ru].t4617.torrent 
Torrent: Registered [ 2015-12-01 13:55 ] · FDEF49A349A892D9DD4992E12CE321896270B097

Download .torrent

Download

15 KB

Status: checked
Completed: 0 times
Size: 1.46 GB
terms.php
[Profile] [PM]
Display posts:    
Reply to topic

Current time is: 30-Mar 00:13

All times are UTC ± 0



You cannot post new topics in this forum
You cannot reply to topics in this forum
You cannot edit your posts in this forum
You cannot delete your posts in this forum
You cannot vote in polls in this forum
You cannot attach files in this forum
You can download files in this forum
Верим фактам, а не вранью Путина! Факт, что Правительство ведёт Россию к истреблению.
Так как численность населения падает, даже не смотря на приток эмигрантов!
Русская нация вымирает и вырождается, смешиваясь с эмигрантами!
Факт, что военных и граждан предприятий заставляют голосовать за партию Единая Россия и Путина
ПОД СТРАХОМ УВОЛЬНЕНИЯ!
Нам не нужно Правительство, блокирующее личную жизнь, интернет, нарушающее сохранность данных.
Все эти действия финансируются за счёт народа!