Линия смерти / Kill Line (Ричард Х. Ким / Richard H. Kim) [1991, США, боевик, драма, VHSRip] AVO Антон Алексеев + Original Eng

Reply to topic
DL-List and Torrent activity
Size:  1.28 GB   |    Registered:  4 years 3 months   |    Completed:  0 times

Seeder not seen: Never

 
   
 
 
Author Message

star21 ®

Gender: Female

Longevity: 4 years 4 months

Posts: 551945

Location: Екатеринбург

Post 01-Dec-2015 13:59

[Quote]

Линия смерти / Kill Line
Страна: США
Жанр: боевик, драма
Год выпуска: 1991
Продолжительность: 01:33:07
Перевод: Авторский одноголосый закадровый Антон Алексеев
Cубтитры: нет
Оригинальная аудиодорожка: английский
Режиссер: Ричард Х. Ким / Richard H. Kim
В ролях: Бобби Ким /Bobby Kim/, Майкл Паркер /Michael Parker/, Уэйн Лоуэри, Марлен Зиммермэн, Майкл Форд, С. Р. Вальдес, Марк Уильямс /Mark Williams/, Бен Пфайффер, Клиф Уиллис
Описание: Аннотация от alenavova
Чем больше боевиков смотришь - тем больше убеждаешься: мафиози - люди глупые. И даже очень. Судите сами: надо им, допустим, с кем-то разобраться. Прежде чем учинить разборку, следует проверить родословную жертвы до десятого колена. А то у убитого обязательно найдутся братья, сестры, отцы, сыновья и прочая родня. И все, как на подбор, крутые супермены и суперменши. Но мафия никак не хочет проверять генеалогическое древо своих жертв! И вот что получается: Однажды мафия расстреляла китайскую семью. Считалось, что Джо, брат главы убитого семейства, украл мафиозные деньги. Джо в это время сидел в тюрьме. Устроив обильное кровопускание ни в чем не повинным людям, убийцы не учли, что Джо когда-нибудь выйдет из тюрьмы. Денег он, кстати, не брал. Просидев 10 лет за решеткой, сохранил прекрасную спортивную форму. И устроил мафии такое!..
Доп. информация: За этот раритетный (IMDb: 3.50 (22)) фильм спасибо lohhnes
Релиз
Сэмпл: https://yadi.sk/i/HvSYfYWpkBUV7
Качество видео: VHSRip
Формат видео: AVI
Видео: 640x480 (1.33:1), 23.976 fps, XviD build 64 ~1499 kbps avg, 0.20 bit/pixel
Аудио: 48 kHz, AC3 Dolby Digital, 2/0 (L,R) ch, ~192 kbps
Аудио 2: 48 kHz, AC3 Dolby Digital, 2/0 (L,R) ch, ~256 kbps Eng

MediaInfo

Линия смерти - Kill Line [by Edich2].avi
Format : AVI
Format/Info : Audio Video Interleave
File size : 1.28 GiB
Duration : 1h 33mn
Overall bit rate : 1 962 Kbps
Movie name : Линия смерти - Kill Line [by Edich2]
Director : by Edich2
Writing application : VirtualDubMod 1.5.10.2 (build 2540/release)
Comment : RuTracker.org
Video
ID : 0
Format : MPEG-4 Visual
Format profile : Advanced Simple@L5
Format settings, BVOP : 2
Format settings, QPel : No
Format settings, GMC : No warppoints
Format settings, Matrix : Default (H.263)
Codec ID : XVID
Codec ID/Hint : XviD
Duration : 1h 33mn
Bit rate : 1 500 Kbps
Width : 640 pixels
Height : 480 pixels
Display aspect ratio : 4:3
Frame rate : 23.976 fps
Color space : YUV
Chroma subsampling : 4:2:0
Bit depth : 8 bits
Scan type : Progressive
Compression mode : Lossy
Bits/(Pixel*Frame) : 0.204
Stream size : 999 MiB (76%)
Writing library : XviD 64
Audio #1
ID : 1
Format : AC-3
Format/Info : Audio Coding 3
Mode extension : CM (complete main)
Format settings, Endianness : Big
Codec ID : 2000
Duration : 1h 33mn
Bit rate mode : Constant
Bit rate : 192 Kbps
Channel(s) : 2 channels
Channel positions : Front: L R
Sampling rate : 48.0 KHz
Bit depth : 16 bits
Compression mode : Lossy
Stream size : 128 MiB (10%)
Alignment : Split accross interleaves
Interleave, duration : 42 ms (1.00 video frame)
Interleave, preload duration : 500 ms
Audio #2
ID : 2
Format : AC-3
Format/Info : Audio Coding 3
Mode extension : CM (complete main)
Format settings, Endianness : Big
Codec ID : 2000
Duration : 1h 33mn
Bit rate mode : Constant
Bit rate : 256 Kbps
Channel(s) : 2 channels
Channel positions : Front: L R
Sampling rate : 48.0 KHz
Bit depth : 16 bits
Compression mode : Lossy
Stream size : 171 MiB (13%)
Alignment : Split accross interleaves
Interleave, duration : 42 ms (1.00 video frame)
Interleave, preload duration : 500 ms

Скриншоты




To download the content you need:
1. Download and install torrent client [for Windows] or for mobile system
2. Click on [Download]
Attention.
If the test YOU are NOT a ROBOT - does not work, then You are using an outdated browser.
Install the current browser and click on [Download]

Do not work with Yandex browser. Uploading files to them is erroneous.
Security: torrent client is allowed by Kaspersky.

[en.asmlocator.ru].t4616.torrent 
Torrent: Registered [ 2015-12-01 13:55 ] · 0C5B726A0F5C5A87FF4D4085D5916C13CCB9ADE8

Download .torrent

Download

13 KB

Status: checked
Completed: 0 times
Size: 1.28 GB
terms.php
[Profile] [PM]
Display posts:    
Reply to topic

Current time is: 31-Mar 19:33

All times are UTC ± 0



You cannot post new topics in this forum
You cannot reply to topics in this forum
You cannot edit your posts in this forum
You cannot delete your posts in this forum
You cannot vote in polls in this forum
You cannot attach files in this forum
You can download files in this forum
Верим фактам, а не вранью Путина! Факт, что Правительство ведёт Россию к истреблению.
Так как численность населения падает, даже не смотря на приток эмигрантов!
Русская нация вымирает и вырождается, смешиваясь с эмигрантами!
Факт, что военных и граждан предприятий заставляют голосовать за партию Единая Россия и Путина
ПОД СТРАХОМ УВОЛЬНЕНИЯ!
Нам не нужно Правительство, блокирующее личную жизнь, интернет, нарушающее сохранность данных.
Все эти действия финансируются за счёт народа!