Долгий поцелуй на ночь / The Long Kiss Goodnight (Ренни Харлин / Renny Harlin) [1996, США, боевик, DVB] [Fullscreen] MVO (НТВ+)

Reply to topic
DL-List and Torrent activity
Size:  2.52 GB   |    Registered:  4 years 4 months   |    Completed:  0 times

Seeder not seen: Never

 
   
 
 
Author Message

star21 ®

Gender: Female

Longevity: 4 years 5 months

Posts: 551945

Location: Екатеринбург

Post 01-Dec-2015 13:59

[Quote]

Долгий поцелуй на ночь
The Long Kiss Goodnight
Fullscreen Страна: США
Жанр: боевик
Год выпуска: 1996
Продолжительность: 01:50:14-Перевод: Профессиональный (многоголосый закадровый) НТВ+
Cубтитры: нет
Оригинальная аудиодорожка: нет-Режиссер: Ренни Харлин / Renny Harlin
В ролях: Джина Дэвис, Сэмюэл Л. Джексон, Брайан Кокс, Рекс Линн, Дэвид Морс, Крэйг Бирко, Шон Дойл, Ивонн Зима, Том Амандес, Патрик Мэлахайд, Джозеф МакКенна, Мелина Канакаридис, Ларри Кинг-Описание: 8 лет назад школьная учительница Саманта Кейн перенесла полную потерю памяти. Она живет с 8-летней дочкой счастливой семейной жизнью и не подозревает о своем кровавом прошлом, ведь когда-то эта красивая женщина была агентом Чарли Бэлтимор, выполнявшим секретные заказы ЦРУ. Шокированная
неожиданным возвращением некоторых навыков и психологической
подготовки профессионального киллера, Саманта пытается разобраться в своем прошлом.
Детектив Митч Хенесси, начавший с расследования жизни простой учительницы,
оказывается втянутым вместе с Самантой в секретную операцию ЦРУ
-Доп. информация: Fullscreen
DVB имеет иное наполнение кадра, чем BD и DVD
Финальные титры ускорены и совмещены с анонсом фильма
-Сэмпл: минута54сек-Качество видео: DVB
Формат видео: MPEG-PS
Видео: MPEG Video, 720x576, 4:3, 25,000 кадров/сек, 3012 Кбит/сек
Аудио: MP2, 48,0 КГц, 192 Кбит/сек, 2 канала (многоголосый НТВ+)

Сравнения

BD
5 скринов-6 скринов

MediaInfo

Общее
Полное имя : Долгий поцелуй на ночь.mpg
Формат : MPEG-PS
Размер файла : 2,52 Гбайт
Продолжительность : 1 ч. 50 м.
Режим общего битрейта : Переменный
Общий поток : 3269 Кбит/сек
Видео
Идентификатор : 224 (0xE0)
Формат : MPEG Video
Версия формата : Version 2
Профиль формата : Main@Main
Параметр BVOP формата : Да
Параметр матрицы формата : Выборочная
Параметр GOP формата : Variable
Структура изображения : Frame
Продолжительность : 1 ч. 50 м.
Вид битрейта : Переменный
Битрейт : 3012 Кбит/сек
Максимальный битрейт : 15,0 Мбит/сек
Ширина : 720 пикселей
Высота : 576 пикселей
Соотношение сторон : 4:3
Частота кадров : 25,000 кадров/сек
Стандарт вещания : PAL
Цветовое пространство : YUV
Субдискретизация насыщенности : 4:2:0
Битовая глубина : 8 бит
Тип развёртки : Чересстрочная
Порядок развёртки : Верхнее поле первое
Метод сжатия : С потерями
Бит/(Пиксели*Кадры) : 0.290
Временной код первого кадра : 00:00:00:00
Оригинал временного кода : Group of pictures header
GOP, открыто/закрыто : Открыто
GOP, открыто/закрыто на первом кадре : Закрыто
Размер потока : 2,32 Гбайт (92%)
Аудио
Идентификатор : 192 (0xC0)
Формат : MPEG Audio
Версия формата : Version 1
Профиль формата : Layer 2
Продолжительность : 1 ч. 50 м.
Вид битрейта : Постоянный
Битрейт : 192 Кбит/сек
Каналы : 2 канала
Частота : 48,0 КГц
Метод сжатия : С потерями
Задержка видео : 16 мс.
Размер потока : 151 Мбайт (6%)

Скриншоты

To download the content you need:
1. Download and install torrent client [for Windows] or for mobile system
2. Click on [Download]
Attention.
If the test YOU are NOT a ROBOT - does not work, then You are using an outdated browser.
Install the current browser and click on [Download]

Do not work with Yandex browser. Uploading files to them is erroneous.
Security: torrent client is allowed by Kaspersky.

[en.asmlocator.ru].t4614.torrent 
Torrent: Registered [ 2015-12-01 13:55 ] · CFAA2D1017C1B41AD0CA460889890227974E1D6A

Download .torrent

Download

13 KB

Status: checked
Completed: 0 times
Size: 2.52 GB
terms.php
[Profile] [PM]
Display posts:    
Reply to topic

Current time is: 07-Apr 18:40

All times are UTC ± 0



You cannot post new topics in this forum
You cannot reply to topics in this forum
You cannot edit your posts in this forum
You cannot delete your posts in this forum
You cannot vote in polls in this forum
You cannot attach files in this forum
You can download files in this forum
Верим фактам, а не вранью Путина! Факт, что Правительство ведёт Россию к истреблению.
Так как численность населения падает, даже не смотря на приток эмигрантов!
Русская нация вымирает и вырождается, смешиваясь с эмигрантами!
Факт, что военных и граждан предприятий заставляют голосовать за партию Единая Россия и Путина
ПОД СТРАХОМ УВОЛЬНЕНИЯ!
Нам не нужно Правительство, блокирующее личную жизнь, интернет, нарушающее сохранность данных.
Все эти действия финансируются за счёт народа!