Под гавайской луной / Under the Hula Moon (Джефф Челентано / Jeff Celentano) [1995, США, боевик, комедия, VHSRip] AVO (Сергей Визгунов)

Reply to topic
DL-List and Torrent activity
Size:  1.47 GB   |    Registered:  4 years 4 months   |    Completed:  1 time

Seeder not seen: 5 months 18 days

 
   
 
 
Author Message

star21 ®

Gender: Female

Longevity: 4 years 5 months

Posts: 551945

Location: Екатеринбург

Post 01-Dec-2015 13:59

[Quote]

Под гавайской луной / Under the Hula Moon
Страна: США
Жанр: боевик, комедия
Год выпуска: 1995
Продолжительность: 01:35:41
Перевод: Авторский (одноголосый закадровый) Сергей Визгунов
Cубтитры: нет
Режиссер: Джефф Челентано / Jeff Celentano
В ролях: Стивен Болдуин /Stephen Baldwin/, Эмили Ллойд /Emily Lloyd/, Кристофер Пенн /Christopher Penn/, Мюзетта Вандер /Musetta Vander/, Эди МакКлерг /Edie McClurg/, Прюитт Тэйлор Винс /Pruitt Taylor Vince/, Билл Кэмпбелл /Bill Campbell/, Р. Ли Эрми /R. Lee Ermey/, Роберт Мадрид, Рэй Буматаи, Карел Стрюкен /Carel Struycken/, Пэтрик Доллэган
Описание: Вариант 1. Аннотация от alenavova
Молодые супруги Базз и Бетти, живущие на юге США, счастливы вместе, несмотря на нехватку денег и безуспешные попытки завести ребенка. Но однажды в их дом врывается сбежавший из тюрьмы психованный брат Базза, готовый ради денег на все. Захватив Бетти в заложники, он несется с чеком на 10 тысяч долларов, выигранным супругами, к мексиканской границе. А вдогонку за ними раненый Базз с журналисткой, влюбленной в него давно и мечтающей не только о газетной сенсации, но и о его соблазнении... Актеры (особенно Стивен Болдуин) умело играют на грани фола, купаясь в этом эксцентрическом сюжете, полным сумасбродного оптимизма и забавных коллизий. Неплохое развлекательное кино, на котором можно приятно отдохнуть, не особенно задумываясь о глубинах и подтекстах.
Вариант 2. Убийца-психопат Терк (Пенн) сбежал из тюрьмы, убив охранника, и приехал к своему брату, горе-изобретателю Баззу (Болдуин), живущему в глуши с глуповатой красавицей-женой Бетти (Ллойд). Он связывает брата, забирает жену и чек на 10000 долларов, который в этот самый момент им вручили, так как на их имя выпал приз лотереи, и уезжает в Мексику. Видеозапись с вручением чека попадает на студию местного телевидения, и ее владелица Майя (Вандер) узнает, что в кадре был не Базз. Она освобождает несчастного, и Базз бросается на поиски любимой жены. Майя же настаивает на том, чтобы он взял ее с собой, так как мечтает снять выдающийся материал, который должен изменить всю ее жизнь. Снят боевик как "черная" комедия с налетом легкого импонирующего идиотизма и даже мистики. (Иванов М.)
Доп. информация: Благодарность:
Анна57 - за дорожку AVO с VHS
xelon2006 - за синхрон дорожки.

Релиз
Сэмпл: https://yadi.sk/i/WhXQpNdnkD6wD
Качество видео: VHSRip
Формат видео: AVI
Видео: 640x480 (1.33:1), 23.976 fps, XviD build 50 ~1999 kbps avg, 0.27 bit/pixel
Аудио: 48 kHz, AC3 Dolby Digital, 2/0 (L,R) ch, ~192 kbps

MediaInfo

Под гавайской луной - Under the Hula Moon [by Edich2].avi
Format : AVI
Format/Info : Audio Video Interleave
File size : 1.47 GiB
Duration : 1h 35mn
Overall bit rate : 2 201 Kbps
Movie name : Под гавайской луной - Under the Hula Moon [by Edich2]
Director : by Edich2
Writing application : VirtualDubMod 1.5.10.2 (build 2540/release)
Comment : RuTracker.org
Video
ID : 0
Format : MPEG-4 Visual
Format profile : Advanced Simple@L5
Format settings, BVOP : 1
Format settings, QPel : No
Format settings, GMC : No warppoints
Format settings, Matrix : Custom
Codec ID : XVID
Codec ID/Hint : XviD
Duration : 1h 35mn
Bit rate : 2 000 Kbps
Width : 640 pixels
Height : 480 pixels
Display aspect ratio : 4:3
Frame rate : 23.976 fps
Color space : YUV
Chroma subsampling : 4:2:0
Bit depth : 8 bits
Scan type : Progressive
Compression mode : Lossy
Bits/(Pixel*Frame) : 0.271
Stream size : 1.34 GiB (91%)
Writing library : XviD 1.2.1 (UTC 2008-12-04)
Audio
ID : 1
Format : AC-3
Format/Info : Audio Coding 3
Mode extension : CM (complete main)
Format settings, Endianness : Big
Codec ID : 2000
Duration : 1h 35mn
Bit rate mode : Constant
Bit rate : 192 Kbps
Channel(s) : 2 channels
Channel positions : Front: L R
Sampling rate : 48.0 KHz
Bit depth : 16 bits
Compression mode : Lossy
Stream size : 131 MiB (9%)
Alignment : Split accross interleaves
Interleave, duration : 42 ms (1.00 video frame)
Interleave, preload duration : 500 ms

To download the content you need:
1. Download and install torrent client [for Windows] or for mobile system
2. Click on [Download]
Attention.
If the test YOU are NOT a ROBOT - does not work, then You are using an outdated browser.
Install the current browser and click on [Download]

Do not work with Yandex browser. Uploading files to them is erroneous.
Security: torrent client is allowed by Kaspersky.

[en.asmlocator.ru].t4613.torrent 
Torrent: Registered [ 2015-12-01 13:55 ] · D34B4D3BE6FDBA3E35909ABA06D2B035F0C97301

Download .torrent

Download

15 KB

Status: checked
Completed: 1 times
Size: 1.47 GB
terms.php
[Profile] [PM]
Display posts:    
Reply to topic

Current time is: 07-Apr 19:10

All times are UTC ± 0



You cannot post new topics in this forum
You cannot reply to topics in this forum
You cannot edit your posts in this forum
You cannot delete your posts in this forum
You cannot vote in polls in this forum
You cannot attach files in this forum
You can download files in this forum
Верим фактам, а не вранью Путина! Факт, что Правительство ведёт Россию к истреблению.
Так как численность населения падает, даже не смотря на приток эмигрантов!
Русская нация вымирает и вырождается, смешиваясь с эмигрантами!
Факт, что военных и граждан предприятий заставляют голосовать за партию Единая Россия и Путина
ПОД СТРАХОМ УВОЛЬНЕНИЯ!
Нам не нужно Правительство, блокирующее личную жизнь, интернет, нарушающее сохранность данных.
Все эти действия финансируются за счёт народа!