Берегись / Осторожно / Смотри на это / Watch it (Том Флинн / Tom Flynn) [1993, США, комедия, мелодрама, TVRip] AVO (А. Михалев)

Reply to topic
DL-List and Torrent activity
Size:  1.46 GB   |    Registered:  4 years 3 months   |    Completed:  0 times

Seeder not seen: Never

 
   
 
 
Author Message

star21 ®

Gender: Female

Longevity: 4 years 4 months

Posts: 551945

Location: Екатеринбург

Post 01-Dec-2015 13:59

[Quote]

-Берегись / Осторожно / Смотри на этоWatch it- -Страна: США
Жанр: комедия, мелодрама
Год выпуска: 1993
Продолжительность: 01:42:15-Перевод: Авторский (одноголосый закадровый), А. Михалев
Cубтитры: нет
Оригинальная аудиодорожка: нет-Режиссер: Том Флинн / Tom Flynn-В ролях: Питер Галлахер, Сюзи Эмис, Джон С. МакГинли, Джон Тэнни, Синтия Стивенсон, Лили Тэйлор, Том Сайзмор-Описание: "Берегись" - это игра детства, которую четверо приятелей всерьёз переносят на ту пору жизни, когда юность давно закончилась, а по-настоящему взрослая жизнь только начинается. Эквивалентное название этой игры - "Шутливый розыгрыш приятеля". Однако, по понятной причине, смеются только те, которые разыгрывают. Другим же не всегда весело. Главное не перейти грани ... ведь есть в жизни вещи, над которомы смеяться запрещено.
Слоган "Четверо мужчин и женщины, которые их раздражают"-Сэмпл: https://yadi.sk/i/rFgR7p9ekCsHA-Исходник: телевизор
Качество видео: TVRip
Формат видео: AVI-Видео: 640х480 (4:3), XviD ~ 1 844 kbps, 23.976 fps, 0.25 bit/pixel
Аудио: 48 kHz, AC3 Dolby Digital, 2/0 (L,R), ~192.00 kbps avg (А. Михалев)-
-
Звуковая дорожка с переводом Алексея Михалева появилась благодаря zalival

-

MediaInfo

General
Format : AVI
Format/Info : Audio Video Interleave
File size : 1.46 GiB
Duration : 1h 42mn
Overall bit rate : 2 045 Kbps
Writing application : VirtualDubMod 1.5.10.2 (build 2540/release)
Writing library : VirtualDubMod build 2540/release
Video
ID : 0
Format : MPEG-4 Visual
Format profile : Advanced Simple@L5
Format settings, BVOP : 1
Format settings, QPel : No
Format settings, GMC : No warppoints
Format settings, Matrix : Custom
Codec ID : XVID
Codec ID/Hint : XviD
Duration : 1h 42mn
Bit rate : 1 844 Kbps
Width : 640 pixels
Height : 480 pixels
Display aspect ratio : 4:3
Frame rate : 23.976 fps
Color space : YUV
Chroma subsampling : 4:2:0
Bit depth : 8 bits
Scan type : Progressive
Compression mode : Lossy
Bits/(Pixel*Frame) : 0.250
Stream size : 1.32 GiB (90%)
Writing library : XviD 73
Audio
ID : 1
Format : AC-3
Format/Info : Audio Coding 3
Mode extension : CM (complete main)
Format settings, Endianness : Big
Codec ID : 2000
Duration : 1h 42mn
Bit rate mode : Constant
Bit rate : 192 Kbps
Channel(s) : 2 channels
Channel positions : Front: L R
Sampling rate : 48.0 KHz
Compression mode : Lossy
Stream size : 140 MiB (9%)
Alignment : Split accross interleaves
Interleave, duration : 42 ms (1.00 video frame)
Interleave, preload duratio : 500 ms

Скриншоты

-

To download the content you need:
1. Download and install torrent client [for Windows] or for mobile system
2. Click on [Download]
Attention.
If the test YOU are NOT a ROBOT - does not work, then You are using an outdated browser.
Install the current browser and click on [Download]

Do not work with Yandex browser. Uploading files to them is erroneous.
Security: torrent client is allowed by Kaspersky.

[en.asmlocator.ru].t4612.torrent 
Torrent: Registered [ 2015-12-01 13:55 ] · C3B9F35A0C52CF1B5F15CF18DC770246162071AA

Download .torrent

Download

15 KB

Status: checked
Completed: 0 times
Size: 1.46 GB
terms.php
[Profile] [PM]
Display posts:    
Reply to topic

Current time is: 31-Mar 19:27

All times are UTC ± 0



You cannot post new topics in this forum
You cannot reply to topics in this forum
You cannot edit your posts in this forum
You cannot delete your posts in this forum
You cannot vote in polls in this forum
You cannot attach files in this forum
You can download files in this forum
Верим фактам, а не вранью Путина! Факт, что Правительство ведёт Россию к истреблению.
Так как численность населения падает, даже не смотря на приток эмигрантов!
Русская нация вымирает и вырождается, смешиваясь с эмигрантами!
Факт, что военных и граждан предприятий заставляют голосовать за партию Единая Россия и Путина
ПОД СТРАХОМ УВОЛЬНЕНИЯ!
Нам не нужно Правительство, блокирующее личную жизнь, интернет, нарушающее сохранность данных.
Все эти действия финансируются за счёт народа!