Торговец женщинами / Торговец злом / Merchant of Evil (Скотт Пфайфер / Scott Pfeiffer) [1991, США, боевик, VHSRip] AVO (Пронин) + Original Eng

Reply to topic
DL-List and Torrent activity
Size:  1.53 GB   |    Registered:  4 years 4 months   |    Completed:  0 times

Seeder not seen: 2 years 3 months

 
   
 
 
Author Message

star21 ®

Gender: Female

Longevity: 4 years 4 months

Posts: 551945

Location: Екатеринбург

Post 01-Dec-2015 13:59

[Quote]

Торговец женщинами / Merchant of Evil
Страна: США
Жанр: боевик
Год выпуска: 1991
Продолжительность: 01:30:06
Перевод: Авторский одноголосый закадровый Антон Пронин
Cубтитры: нет
Оригинальная аудиодорожка: английский
Режиссер: Скотт Пфайфер / Scott Pfeiffer
В ролях: Уильям Смит
Джеймс Пфайфер
Стив Вайэлл
Трэйси Хьюз
Дебора Фурлан
Джуд Прест
Стив Сасаки
Доун ДеНун
Сьюзэн Мэннион
Джерри Нил
Описание: По всему миру похищают женщин и продают в публичные дома Юго-Восточной Азии. Герой этой картины именно этим и занимается. (Иванов М.)
Доп. информация: За этот раритетный (IMDb: 4.30 (11)) фильм спасибо lohhnes
Релиз
Сэмпл: https://yadi.sk/i/Yb4w8AgQkE8jd
Качество видео: VHSRip
Формат видео: AVI
Видео: 640x480 (1.33:1), 29.969 fps, DivX Codec 6.5.1 ~1999 kbps avg, 0.22 bit/pixel
Аудио: 48 kHz, AC3 Dolby Digital, 2/0 (L,R) ch, ~192 kbps
Аудио 2: 48 kHz, MPEG Layer 3, 2 ch, ~224.00 kbps avg

MediaInfo

Торговец женщинами - Merchant of Evil [by Edich2].avi
Format : AVI
Format/Info : Audio Video Interleave
File size : 1.53 GiB
Duration : 1h 30mn
Overall bit rate : 2 434 Kbps
Movie name : Торговец женщинами - Merchant of Evil [by Edich2]
Director : by Edich2
Writing application : VirtualDubMod 1.5.10.2 (build 2540/release)
Comment : RuTracker.org
Video
ID : 0
Format : MPEG-4 Visual
Format settings, BVOP : No
Format settings, QPel : No
Format settings, GMC : No warppoints
Format settings, Matrix : Default (H.263)
Codec ID : DX50
Codec ID/Hint : DivX 5
Duration : 1h 30mn
Bit rate : 2 000 Kbps
Width : 640 pixels
Height : 480 pixels
Display aspect ratio : 4:3
Frame rate : 29.970 fps
Color space : YUV
Chroma subsampling : 4:2:0
Bit depth : 8 bits
Scan type : Interlaced
Scan order : Bottom Field First
Compression mode : Lossy
Bits/(Pixel*Frame) : 0.217
Stream size : 1.26 GiB (82%)
Writing library : DivX 6.5.1 (UTC 2007-03)
Audio #1
ID : 1
Format : AC-3
Format/Info : Audio Coding 3
Mode extension : CM (complete main)
Format settings, Endianness : Big
Codec ID : 2000
Duration : 1h 30mn
Bit rate mode : Constant
Bit rate : 192 Kbps
Channel(s) : 2 channels
Channel positions : Front: L R
Sampling rate : 48.0 KHz
Bit depth : 16 bits
Compression mode : Lossy
Stream size : 124 MiB (8%)
Alignment : Split accross interleaves
Interleave, duration : 33 ms (1.00 video frame)
Interleave, preload duration : 500 ms
Audio #2
ID : 2
Format : MPEG Audio
Format version : Version 1
Format profile : Layer 3
Mode : Joint stereo
Mode extension : MS Stereo
Codec ID : 55
Codec ID/Hint : MP3
Duration : 1h 30mn
Bit rate mode : Constant
Bit rate : 224 Kbps
Channel(s) : 2 channels
Sampling rate : 48.0 KHz
Compression mode : Lossy
Stream size : 144 MiB (9%)
Alignment : Split accross interleaves
Interleave, duration : 33 ms (1.00 video frame)
Interleave, preload duration : 500 ms
Writing library : LAMEЄ@†ЊЖ;‚Фf¶‘—F

Скриншоты


To download the content you need:
1. Download and install torrent client [for Windows] or for mobile system
2. Click on [Download]
Attention.
If the test YOU are NOT a ROBOT - does not work, then You are using an outdated browser.
Install the current browser and click on [Download]

Do not work with Yandex browser. Uploading files to them is erroneous.
Security: torrent client is allowed by Kaspersky.

[en.asmlocator.ru].t4611.torrent 
Torrent: Registered [ 2015-12-01 13:55 ] · 8CA6D31510CD64A63F07D64928FBC8A102B8AD93

Download .torrent

Download

16 KB

Status: checked
Completed: 0 times
Size: 1.53 GB
terms.php
[Profile] [PM]
Display posts:    
Reply to topic

Current time is: 03-Apr 11:22

All times are UTC ± 0



You cannot post new topics in this forum
You cannot reply to topics in this forum
You cannot edit your posts in this forum
You cannot delete your posts in this forum
You cannot vote in polls in this forum
You cannot attach files in this forum
You can download files in this forum
Верим фактам, а не вранью Путина! Факт, что Правительство ведёт Россию к истреблению.
Так как численность населения падает, даже не смотря на приток эмигрантов!
Русская нация вымирает и вырождается, смешиваясь с эмигрантами!
Факт, что военных и граждан предприятий заставляют голосовать за партию Единая Россия и Путина
ПОД СТРАХОМ УВОЛЬНЕНИЯ!
Нам не нужно Правительство, блокирующее личную жизнь, интернет, нарушающее сохранность данных.
Все эти действия финансируются за счёт народа!