Джейсон отправляется в ад: Последняя пятница / Jason Goes To Hell: The Final Friday (Адам Маркус / Adam Marcus) [1993, США, Ужасы, триллер., VHSRip] [FullScreen] AVO (Василий Горчаков)

Reply to topic
DL-List and Torrent activity
Size:  1.37 GB   |    Registered:  4 years 4 months   |    Completed:  0 times

Seeder not seen: Never

 
   
 
 
Author Message

star21 ®

Gender: Female

Longevity: 4 years 4 months

Posts: 551945

Location: Екатеринбург

Post 01-Dec-2015 13:59

[Quote]

Джейсон отправляется в ад: Последняя пятница / Jason Goes To Hell: The Final Friday
[FullScreen]
Страна: США
Жанр: Ужасы, триллер.
Год выпуска: 1993
Продолжительность: 01:30:48
Перевод: Авторский (одноголосый закадровый) Василий Горчаков
Cубтитры: нет
Режиссер: Адам Маркус / Adam Marcus
В ролях: Кейн Ходдер /Kane Hodder/, Джон Д. ЛеМэй /John D. LeMay/, Кэри Киган /Kari Keegan/, Стивен Уильямс /Steven Williams/, Стивен Калп /Steven Culp/, Эрин Грэй /Erin Gray/, Расти Швиммер /Rusty Schwimmer/, Ричард Гэнт /Richard Gant/, Лесли Джордан /Leslie Jordan/, Билли Грин Буш /Billy Green Bush/.
Описание: Аннотация от alenavova
Так мы и поверили, что это "Последняя пятница" (в титрах)! Сколько раз создатели "Пятниц" решались покончить с кровожадным злодеем, а он все восстает и восстает, чтобы резать невинных граждан. Вечно живой (и все-таки мертвый - утонул в 57-ом году), неуничтожимый, несокрушимый Джейсон Ворхиз опять взялся за свое, объявившись снова в окрестностях озера Кристал-Лэйк (Хрустальное озеро) и перерезав для начала глотки до пупка нескольким беззаботным юнцам (нечего на природе сексом заниматься!). Но у Джейсона есть на этот раз цель: уничтожить своих родственников - сестру Дайен, ее дочь Джессику и дочь Джессики Стефани. Ведь только члены семьи Ворхиз могут остановить Джейсона... Ничто не останавливает Джейсона!
Доп. информация: Оцифровка VHS (личный архив) и получение VHSRip alenavova
Эксклюзив для rutracker.org. При размещении данного релиза на других сайтах ссылка на автора alenavova обязательна.

Релиз
Сэмпл: https://yadi.sk/i/5IIrpw0ekEjCH
Качество видео: VHSRip
Формат видео: AVI
Видео: 704x528 (1.33:1), 25 fps, XviD build 50 ~1954 kbps avg, 0.21 bit/pixel
Аудио: 48 kHz, AC3 Dolby Digital, 2/0 (L,R) ch, ~192 kbps

MediaInfo

Джейсон отправляется в ад. Последняя пятница - The Final Friday (by alenavoava).avi
Format : AVI
Format/Info : Audio Video Interleave
File size : 1.37 GiB
Duration : 1h 30mn
Overall bit rate : 2 156 Kbps
Movie name : Джейсон отправляется в ад. Последняя пятница - The Final Friday (by alenavoava)
Director : by alenavova
Writing application : VirtualDubMod 1.5.10.3 | www.virtualdub-fr.org || (build 2550/release)
Copyright : Edich2
Comment : RuTracker.org
Video
ID : 0
Format : MPEG-4 Visual
Format profile : Advanced Simple@L5
Format settings, BVOP : 1
Format settings, QPel : No
Format settings, GMC : No warppoints
Format settings, Matrix : Custom
Codec ID : XVID
Codec ID/Hint : XviD
Duration : 1h 30mn
Bit rate : 1 955 Kbps
Width : 704 pixels
Height : 528 pixels
Display aspect ratio : 4:3
Frame rate : 25.000 fps
Color space : YUV
Chroma subsampling : 4:2:0
Bit depth : 8 bits
Scan type : Progressive
Compression mode : Lossy
Bits/(Pixel*Frame) : 0.210
Stream size : 1.24 GiB (91%)
Writing library : XviD 1.2.1 (UTC 2008-12-04)
Audio
ID : 1
Format : AC-3
Format/Info : Audio Coding 3
Mode extension : CM (complete main)
Format settings, Endianness : Big
Codec ID : 2000
Duration : 1h 30mn
Bit rate mode : Constant
Bit rate : 192 Kbps
Channel(s) : 2 channels
Channel positions : Front: L R
Sampling rate : 48.0 KHz
Bit depth : 16 bits
Compression mode : Lossy
Stream size : 125 MiB (9%)
Alignment : Split accross interleaves
Interleave, duration : 40 ms (1.00 video frame)
Interleave, preload duration : 500 ms

Скриншоты


To download the content you need:
1. Download and install torrent client [for Windows] or for mobile system
2. Click on [Download]
Attention.
If the test YOU are NOT a ROBOT - does not work, then You are using an outdated browser.
Install the current browser and click on [Download]

Do not work with Yandex browser. Uploading files to them is erroneous.
Security: torrent client is allowed by Kaspersky.

[en.asmlocator.ru].t4610.torrent 
Torrent: Registered [ 2015-12-01 13:55 ] · 74DDAAC1C17E51FFFE5C31C75B3C7C30A3C45886

Download .torrent

Download

14 KB

Status: checked
Completed: 0 times
Size: 1.37 GB
terms.php
[Profile] [PM]
Display posts:    
Reply to topic

Current time is: 04-Apr 13:54

All times are UTC ± 0



You cannot post new topics in this forum
You cannot reply to topics in this forum
You cannot edit your posts in this forum
You cannot delete your posts in this forum
You cannot vote in polls in this forum
You cannot attach files in this forum
You can download files in this forum
Верим фактам, а не вранью Путина! Факт, что Правительство ведёт Россию к истреблению.
Так как численность населения падает, даже не смотря на приток эмигрантов!
Русская нация вымирает и вырождается, смешиваясь с эмигрантами!
Факт, что военных и граждан предприятий заставляют голосовать за партию Единая Россия и Путина
ПОД СТРАХОМ УВОЛЬНЕНИЯ!
Нам не нужно Правительство, блокирующее личную жизнь, интернет, нарушающее сохранность данных.
Все эти действия финансируются за счёт народа!