Отчаянные убийства / Il ritmo del silenzio / Desperate Crimes (Андреас Марфори / Andreas Marfori) [1993, Италия, Эротика, триллер, DVDRip] AVO В. Дохалов

Reply to topic
DL-List and Torrent activity
Size:  1.45 GB   |    Registered:  4 years 3 months   |    Completed:  1 time

Seeder not seen: 5 months 9 days

 
   
 
 
Author Message

star21 ®

Gender: Female

Longevity: 4 years 4 months

Posts: 551945

Location: Екатеринбург

Post 01-Dec-2015 13:59

[Quote]

Отчаянные убийства / Il ritmo del silenzio / Desperate Crimes
Страна: Италия
Жанр: Эротика , триллер
Год выпуска: 1993
Продолжительность: 1:43:05
Перевод: Авторский (одноголосый закадровый) В. Дохалов
Cубтитры: нет
Режиссер: Андреас Марфори / Andreas Marfori
В ролях: Денис Кросби / Denise Crosby, Ван Кваттро / Van Quattro, Рена Нихаус / Rena Niehaus, Трейси Лордс / Traci Lords, Франко Коломбо / Franco Columbu, Элизабет Кайтан / Elizabeth Kaitan, Николетта Борис / Nicoletta Boris, Рэнди Ингерман / Рэнди Ингерман, Фаусто Ломбарди / Fausto Lombardi, Джо Дженкинс / Jho Jhenkins
Описание: Лари приезжает на поиски пропавшей возлюбленной Джейми. Проводя свое расследование, он оказывается втянутымв серию загадочных убийств проституток, организованных главарем мафии Нераско.
Доп. информация: Звук синхронизирован из раздачи LDE1983
Сэмпл: https://www.sendspace.com/file/td0p3n
Качество видео: DVDRip
Формат видео: AVI
Видео: XviD MPEG-4 , 640x480 (1.33:1) , 25.000 fps , 1 816 Kbps
Аудио: AC3 , 48 kHz , 192.00 kbps avg , 2/0 (L,R) ch

MediaInfo

Complete name Отчаянные убийства 1993.avi
Format : AVI
Format/Info : Audio Video Interleave
File size : 1.45 GiB
Duration : 1h 43mn
Overall bit rate : 2 018 Kbps
Writing application : VirtualDubMod 1.5.10.3 | www.virtualdub-fr.org || (build 2550/release)
Writing library : VirtualDub build 35491/release
Video
ID : 0
Format : MPEG-4 Visual
Format profile : Advanced Simple@L5
Format settings, BVOP : 1
Format settings, QPel : No
Format settings, GMC : No warppoints
Format settings, Matrix : Default (MPEG)
Codec ID : XVID
Codec ID/Hint : XviD
Duration : 1h 43mn
Bit rate : 1 816 Kbps
Width : 640 pixels
Height : 480 pixels
Display aspect ratio : 4:3
Frame rate : 25.000 fps
Color space : YUV
Chroma subsampling : 4:2:0
Bit depth : 8 bits
Scan type : Progressive
Compression mode : Lossy
Bits/(Pixel*Frame) : 0.236
Stream size : 1.31 GiB (90%)
Writing library : XviD 1.2.1 (UTC 2008-12-04)
Audio
ID : 1
Format : AC-3
Format/Info : Audio Coding 3
Mode extension : CM (complete main)
Format settings, Endianness : Big
Codec ID : 2000
Duration : 1h 43mn
Bit rate mode : Constant
Bit rate : 192 Kbps
Channel(s) : 2 channels
Channel positions : Front: L R
Sampling rate : 48.0 KHz
Compression mode : Lossy
Stream size : 142 MiB (10%)
Alignment : Aligned on interleaves
Interleave, duration : 40 ms (1.00 video frame)
Interleave, preload duratio : 512 ms

Скриншоты

To download the content you need:
1. Download and install torrent client [for Windows] or for mobile system
2. Click on [Download]
Attention.
If the test YOU are NOT a ROBOT - does not work, then You are using an outdated browser.
Install the current browser and click on [Download]

Do not work with Yandex browser. Uploading files to them is erroneous.
Security: torrent client is allowed by Kaspersky.

[en.asmlocator.ru].t4609.torrent 
Torrent: Registered [ 2015-12-01 13:55 ] · AAC431EB322F2927DF9F9879CD99218B15E2A44A

Download .torrent

Download

15 KB

Status: checked
Completed: 1 times
Size: 1.45 GB
terms.php
[Profile] [PM]
Display posts:    
Reply to topic

Current time is: 29-Mar 00:57

All times are UTC ± 0



You cannot post new topics in this forum
You cannot reply to topics in this forum
You cannot edit your posts in this forum
You cannot delete your posts in this forum
You cannot vote in polls in this forum
You cannot attach files in this forum
You can download files in this forum
Верим фактам, а не вранью Путина! Факт, что Правительство ведёт Россию к истреблению.
Так как численность населения падает, даже не смотря на приток эмигрантов!
Русская нация вымирает и вырождается, смешиваясь с эмигрантами!
Факт, что военных и граждан предприятий заставляют голосовать за партию Единая Россия и Путина
ПОД СТРАХОМ УВОЛЬНЕНИЯ!
Нам не нужно Правительство, блокирующее личную жизнь, интернет, нарушающее сохранность данных.
Все эти действия финансируются за счёт народа!