На гребне волны / Точка разрыва / Гребень волны / Point Break (Кэтрин Бигелоу / Kathryn Bigelow) [1991, США, Япония, боевик, криминал, VHSRip] [FullScreen] AVO (Андрей Гаврилов)

Reply to topic
DL-List and Torrent activity
Size:  1.46 GB   |    Registered:  4 years 3 months   |    Completed:  1 time

Seeder not seen: 5 months 10 days

 
   
 
 
Author Message

star21 ®

Gender: Female

Longevity: 4 years 4 months

Posts: 551945

Location: Екатеринбург

Post 01-Dec-2015 13:59

[Quote]

На гребне волны / Точка разрыва / Гребень волны / Point Break
«27 банков за 3 года - и всё отдать за идеальную волну!»
[FullScreen]
Страна: США, Япония
Жанр: боевик, криминал
Год выпуска: 1991
Продолжительность: 02:02:02
Перевод: Авторский (одноголосый закадровый) Андрей Гаврилов
Cубтитры: нет
Режиссер: Кэтрин Бигелоу / Kathryn Bigelow
В ролях: Киану Ривз, Патрик Суэйзи, Гэри Бьюзи, Лори Петти, Джон К. МакГинли, Джеймс ЛеГро, Джон Филбин, Боджесси Кристофер, Джулиан Рейес, Дэниэл Бир
Описание: Аннотация от alenavova
Молодой агент ФБР включается в расследование дела, над которым давно ломает голову полиция Западного побережья. Группа неизвестных, одетых в клоунские маски американских президентов (Рейгана, Картера, Никсона и Джонсона) и фраки, третий год подряд совершает вооруженные ограбления банков , причем так, что не подкопаешься: профессиональная точность, выверенная схема, один и тот же хронометраж (за 90 секунд), и - никаких следов и улик. Кроме одной маленькой зацепочки, которая и приводит нашего героя и его напарника на берег океана, где в мощных искрящихся волнах прибоя покоряют стихию бесстрашные виндсерферы. Чтобы выследить преступников Ривз научился плавать на доске и... подружился с ними, особенно с девушкой и с главарем (Суэйз). Но то, что трактовалось главарем как любовь к свободе и независимости, в конце концов привело к трагическому финалу к убийству невинных людей, чего ранее банде всегда удавалось избежать. Очень хорош Бьюзи в роли старшего и опытного наставника Ривза. Этой картиной Кэтрин Байджлоу еще раз подтвердила свою приверженность "визуалистическому" направлению в режиссуре (в этой же манере работают такие, например, знаменитости, как Ридли Скотт и Тим Бертон). Действительно, фильм снят очень красиво - просто глаз не оторвать!
Доп. информация: Оцифровка VHS (личный архив) и получение VHSRip alenavova
Эксклюзив для rutracker.org. При размещении данного релиза на других сайтах ссылка на автора alenavova обязательна.

Релиз
Сэмпл: https://yadi.sk/i/0erKIw6ikGVKy
Качество видео: VHSRip
Формат видео: AVI
Видео: 704x528 (1.33:1), 25 fps, XviD build 50 ~1515 kbps avg, 0.16 bit/pixel
Аудио: 48 kHz, AC3 Dolby Digital, 2/0 (L,R) ch, ~192 kbps

MediaInfo

На гребне волны - Point Break (by alenavova).avi
Format : AVI
Format/Info : Audio Video Interleave
File size : 1.46 GiB
Duration : 2h 2mn
Overall bit rate : 1 717 Kbps
Movie name : На гребне волны - Point Break (by alenavova)
Director : by alenavova
Writing application : VirtualDubMod 1.5.10.3 | www.virtualdub-fr.org || (build 2550/release)
Copyright : Edich2
Comment : RuTracker.org
Video
ID : 0
Format : MPEG-4 Visual
Format profile : Advanced Simple@L5
Format settings, BVOP : 1
Format settings, QPel : No
Format settings, GMC : No warppoints
Format settings, Matrix : Custom
Codec ID : XVID
Codec ID/Hint : XviD
Duration : 2h 2mn
Bit rate : 1 516 Kbps
Width : 704 pixels
Height : 528 pixels
Display aspect ratio : 4:3
Frame rate : 25.000 fps
Color space : YUV
Chroma subsampling : 4:2:0
Bit depth : 8 bits
Scan type : Progressive
Compression mode : Lossy
Bits/(Pixel*Frame) : 0.163
Stream size : 1.29 GiB (88%)
Writing library : XviD 1.2.1 (UTC 2008-12-04)
Audio
ID : 1
Format : AC-3
Format/Info : Audio Coding 3
Mode extension : CM (complete main)
Format settings, Endianness : Big
Codec ID : 2000
Duration : 2h 2mn
Bit rate mode : Constant
Bit rate : 192 Kbps
Channel(s) : 2 channels
Channel positions : Front: L R
Sampling rate : 48.0 KHz
Bit depth : 16 bits
Compression mode : Lossy
Stream size : 168 MiB (11%)
Alignment : Split accross interleaves
Interleave, duration : 40 ms (1.00 video frame)
Interleave, preload duration : 500 ms

Скриншоты


To download the content you need:
1. Download and install torrent client [for Windows] or for mobile system
2. Click on [Download]
Attention.
If the test YOU are NOT a ROBOT - does not work, then You are using an outdated browser.
Install the current browser and click on [Download]

Do not work with Yandex browser. Uploading files to them is erroneous.
Security: torrent client is allowed by Kaspersky.

[en.asmlocator.ru].t4606.torrent 
Torrent: Registered [ 2015-12-01 13:55 ] · 38D12C79BFB6985B1B1F33AC476617360F66BA2B

Download .torrent

Download

15 KB

Status: checked
Completed: 1 times
Size: 1.46 GB
terms.php
[Profile] [PM]
Display posts:    
Reply to topic

Current time is: 30-Mar 00:52

All times are UTC ± 0



You cannot post new topics in this forum
You cannot reply to topics in this forum
You cannot edit your posts in this forum
You cannot delete your posts in this forum
You cannot vote in polls in this forum
You cannot attach files in this forum
You can download files in this forum
Верим фактам, а не вранью Путина! Факт, что Правительство ведёт Россию к истреблению.
Так как численность населения падает, даже не смотря на приток эмигрантов!
Русская нация вымирает и вырождается, смешиваясь с эмигрантами!
Факт, что военных и граждан предприятий заставляют голосовать за партию Единая Россия и Путина
ПОД СТРАХОМ УВОЛЬНЕНИЯ!
Нам не нужно Правительство, блокирующее личную жизнь, интернет, нарушающее сохранность данных.
Все эти действия финансируются за счёт народа!