Остров Шакала / Остров Джекилла / Jekyll Island (Кен Дюпуа / Ken DuPuis) [1998, США, Триллер, Криминал, VHSRip] MVO (ЕА)

Reply to topic
DL-List and Torrent activity
Size:  1002 MB   |    Registered:  4 years 4 months   |    Completed:  0 times

Seeder not seen: Never

 
   
 
 
Author Message

star21 ®

Gender: Female

Longevity: 4 years 5 months

Posts: 551945

Location: Екатеринбург

Post 01-Dec-2015 13:59

[Quote]

Остров Шакала / Остров Джекилла / Jekyll Island
Страна: США
Жанр: Триллер, Криминал
Год выпуска: 1998
Продолжительность: 01:30:37
Перевод: Профессиональный (многоголосый закадровый) ЕА
Cубтитры: нет
Режиссер: Кен Дюпуа / Ken DuPuis
В ролях: Дон Могаверо /Don Mogavero/, Оливия Бернетт /Olivia Burnette/, Эверетт МакГилл /Everett McGill/, Файнола Хьюз /Finola Hughes/, Фил Моррис /Phil Morris/, Брайон Джеймс /Brion James/, Джон Дрю /John Drew/, Тоня Томпсон /Tonya Thompson/, Мэтт Уилсон /Matt Wilson/, Марк Батлер /Mark Butler/, Руби Кроуфорд /Ruby Crawford/, Рут Кроуфорд /Ruth Crawford/
Описание: Завтра не наступит никогда.
Днем профессор Мэдисон читает в университете лекции по криминалистике, а по ночам искусно ворует драгоценности, отдавая предпочтение кражам со взломом. Узнав о бриллиантах, подаренных сенатором Лоутоном своей дочери Вэнни, профессор не смог устоять перед искушением их похитить. Но добыча оказалась куда более ценной, чем он мог предположить. Вместе с бриллиантами профессор "похитил" сердце легкомысленной Вэнни, последовавшей за грабителем с явным желанием познакомиться с ним поближе и завязать "роман с камнем". Делом о пропаже дочери сенатора занялись агенты ФБР, давно одержимые идеей поймать неуловимого похитителя бриллиантов. Но следы Мэдисона и Вэнни неожиданно затерялись на крошечном острове Шакала, где совершенно невозможно спрятаться…
Доп. информация: Благодарность:
Анна57 - за VHSрип
xelon2006 - за синхрон дорожки под видеоряд

Релиз
Сэмпл: https://yadi.sk/i/_bDND4DskJTGk
Качество видео: VHSRip
Формат видео: AVI
Видео: 512x384 (1.33:1), 25 fps, XviD build 50 ~1344 kbps avg, 0.27 bit/pixel
Аудио: 48 kHz, AC3 Dolby Digital, 2/0 (L,R) ch, ~192 kbps

MediaInfo

Остров Шакала - Jekyll Island [by Edich2].avi
Format : AVI
Format/Info : Audio Video Interleave
File size : 1 002 MiB
Duration : 1h 30mn
Overall bit rate : 1 546 Kbps
Movie name : Остров Шакала - Jekyll Island [by Edich2]
Director : by Edich2
Writing application : VirtualDubMod 1.5.10.2 (build 2540/release)
Comment : RuTracker.org
Video
ID : 0
Format : MPEG-4 Visual
Format profile : Advanced Simple@L5
Format settings, BVOP : 1
Format settings, QPel : No
Format settings, GMC : No warppoints
Format settings, Matrix : Default (MPEG)
Codec ID : XVID
Codec ID/Hint : XviD
Duration : 1h 30mn
Bit rate : 1 345 Kbps
Width : 512 pixels
Height : 384 pixels
Display aspect ratio : 4:3
Frame rate : 25.000 fps
Color space : YUV
Chroma subsampling : 4:2:0
Bit depth : 8 bits
Scan type : Progressive
Compression mode : Lossy
Bits/(Pixel*Frame) : 0.274
Stream size : 872 MiB (87%)
Writing library : XviD 1.2.1 (UTC 2008-12-04)
Audio
ID : 1
Format : AC-3
Format/Info : Audio Coding 3
Mode extension : CM (complete main)
Format settings, Endianness : Big
Codec ID : 2000
Duration : 1h 30mn
Bit rate mode : Constant
Bit rate : 192 Kbps
Channel(s) : 2 channels
Channel positions : Front: L R
Sampling rate : 48.0 KHz
Bit depth : 16 bits
Compression mode : Lossy
Stream size : 124 MiB (12%)
Alignment : Split accross interleaves
Interleave, duration : 40 ms (1.00 video frame)
Interleave, preload duration : 500 ms

Скриншоты



To download the content you need:
1. Download and install torrent client [for Windows] or for mobile system
2. Click on [Download]
Attention.
If the test YOU are NOT a ROBOT - does not work, then You are using an outdated browser.
Install the current browser and click on [Download]

Do not work with Yandex browser. Uploading files to them is erroneous.
Security: torrent client is allowed by Kaspersky.

[en.asmlocator.ru].t4603.torrent 
Torrent: Registered [ 2015-12-01 13:55 ] · 4B3D6612A22DF02674876DCDA95F718D0D49C90E

Download .torrent

Download

20 KB

Status: checked
Completed: 0 times
Size: 1002 MB
terms.php
[Profile] [PM]
Display posts:    
Reply to topic

Current time is: 10-Apr 08:49

All times are UTC ± 0



You cannot post new topics in this forum
You cannot reply to topics in this forum
You cannot edit your posts in this forum
You cannot delete your posts in this forum
You cannot vote in polls in this forum
You cannot attach files in this forum
You can download files in this forum
Верим фактам, а не вранью Путина! Факт, что Правительство ведёт Россию к истреблению.
Так как численность населения падает, даже не смотря на приток эмигрантов!
Русская нация вымирает и вырождается, смешиваясь с эмигрантами!
Факт, что военных и граждан предприятий заставляют голосовать за партию Единая Россия и Путина
ПОД СТРАХОМ УВОЛЬНЕНИЯ!
Нам не нужно Правительство, блокирующее личную жизнь, интернет, нарушающее сохранность данных.
Все эти действия финансируются за счёт народа!