Тихо умереть / Тихая смерть / To Die Quietly (Джим Греко / Jim Greco) [1997, США, Боевик,, триллер, криминал, VHSRip] MVO

Reply to topic
DL-List and Torrent activity
Size:  1.09 GB   |    Registered:  4 years 6 months   |    Completed:  0 times
DL-List: None

Seeder not seen: Never

 
   
 
 
Author Message

star21 ®

Gender: Female

Longevity: 4 years 6 months

Posts: 551945

Location: Екатеринбург

Post 01-Dec-2015 13:59

[Quote]

Тихо умереть / Тихая смерть / To Die Quietly
Страна: США
Жанр: Боевик,, триллер, криминал
Год выпуска: 1997
Продолжительность: 01:21:02
Перевод: Профессиональный (многоголосый закадровый)
Cубтитры: нет
Режиссер: Джим Греко / Jim Greco
В ролях: Гари Грэхэм, Кен Нагаяма, Кристина Йошида, Джин З. Уилсон, Efrem Escober, Enrique Morlett, Peter Dach, Роберта Томпсон, Стивен Ито, Джоэль Рифкин, Моника Монро, Манабу Мияшита, Claudia Reame, Лиззи Борден, Денис Райзер, Michael Bellah, Николь Пелерин
Описание: Томми - "охотник", специалист по поимке беглецов. Кен - учитель по восточным единоборствам, "исскуству убивать". Они работают в паре, и нет им равных по пресечению зла на улицах города.
приезд в Голливуд молодой, талантливой, к тому же очень страстной и сексапильной актрисы из Японии сильно усложняет жизнь некоторым важным особам.
Неудивительно скорое беследное исчезновение юной звезды. Расследование этого таинственного преступления поручено нашим героям.Коррумпированный Голливуд накрывает их сетью грязных преступлений и заказных убийств.
Дело в том, что похищенна для убийства, ее смерть - это оплата долговых обязательств одного бесжалостного подонка.
Ошеломляющий ответ на массу интересующих вас вопросов вы получите, когда соедигите все части убийственной головоломки в финале фильма.
Доп. информация: За оцифровку VHS большое спасибо Анна57
Релиз
Сэмпл: https://yadi.sk/i/PjubdRtqkMNJQ
Качество видео: VHSRip
Формат видео: AVI
Видео: 640x400 (1.60:1), 25 fps, XviD build 50 ~1785 kbps avg, 0.28 bit/pixel
Аудио: 48 kHz, MPEG Layer 3, 2 ch, ~128.00 kbps avg

MediaInfo

Тихо умереть - To Die Quietly [by Edich2].avi
Format : AVI
Format/Info : Audio Video Interleave
File size : 1.09 GiB
Duration : 1h 21mn
Overall bit rate : 1 923 Kbps
Movie name : Тихо умереть - To Die Quietly [by Edich2]
Director : by Edich2
Writing application : VirtualDubMod 1.5.10.2 (build 2540/release)
Comment : RuTracker.org
Video
ID : 0
Format : MPEG-4 Visual
Format profile : Advanced Simple@L5
Format settings, BVOP : 1
Format settings, QPel : No
Format settings, GMC : No warppoints
Format settings, Matrix : Custom
Codec ID : XVID
Codec ID/Hint : XviD
Duration : 1h 21mn
Bit rate : 1 786 Kbps
Width : 640 pixels
Height : 400 pixels
Display aspect ratio : 16:10
Frame rate : 25.000 fps
Color space : YUV
Chroma subsampling : 4:2:0
Bit depth : 8 bits
Scan type : Progressive
Compression mode : Lossy
Bits/(Pixel*Frame) : 0.279
Stream size : 1.01 GiB (93%)
Writing library : XviD 1.2.1 (UTC 2008-12-04)
Audio
ID : 1
Format : MPEG Audio
Format version : Version 1
Format profile : Layer 3
Codec ID : 55
Codec ID/Hint : MP3
Duration : 1h 21mn
Bit rate mode : Constant
Bit rate : 128 Kbps
Channel(s) : 2 channels
Sampling rate : 48.0 KHz
Compression mode : Lossy
Delay relative to video : 500ms
Stream size : 74.2 MiB (7%)
Alignment : Split accross interleaves
Interleave, duration : 40 ms (1.00 video frame)
Interleave, preload duration : 500 ms

To download the content you need:
1. Download and install torrent client [for Windows] or for mobile system
2. Click on [Download]
Attention.
If the test YOU are NOT a ROBOT - does not work, then You are using an outdated browser.
Install the current browser and click on [Download]

Do not work with Yandex browser. Uploading files to them is erroneous.
Security: torrent client is allowed by Kaspersky.

[en.asmlocator.ru].t4600.torrent 
Torrent: Registered [ 2015-12-01 13:55 ] · 03C2199F7999130D75DD559D556F9FB90C36E062

Download .torrent

Download

11 KB

Status: checked
Completed: 0 times
Size: 1.09 GB
terms.php
[Profile] [PM]
Display posts:    
Reply to topic

Current time is: 03-Jun 02:20

All times are UTC ± 0



You cannot post new topics in this forum
You cannot reply to topics in this forum
You cannot edit your posts in this forum
You cannot delete your posts in this forum
You cannot vote in polls in this forum
You cannot attach files in this forum
You can download files in this forum
Верим фактам, а не вранью Путина! Факт, что Правительство ведёт Россию к истреблению.
Так как численность населения падает, даже не смотря на приток эмигрантов!
Русская нация вымирает и вырождается, смешиваясь с эмигрантами!
Факт, что военных и граждан предприятий заставляют голосовать за партию Единая Россия и Путина
ПОД СТРАХОМ УВОЛЬНЕНИЯ!
Нам не нужно Правительство, блокирующее личную жизнь, интернет, нарушающее сохранность данных.
Все эти действия финансируются за счёт народа!