Конвой / Конвоиры / Chasers (Деннис Хоппер / Dennis Hopper) [1994, США, Комедия, VHSRip] [FullScreen] AVO (Антон Пронин)

Reply to topic
DL-List and Torrent activity
Size:  1.37 GB   |    Registered:  4 years 4 months   |    Completed:  0 times

Seeder not seen: Never

 
   
 
 
Author Message

star21 ®

Gender: Female

Longevity: 4 years 4 months

Posts: 551945

Location: Екатеринбург

Post 01-Dec-2015 13:59

[Quote]

Конвой / Конвоиры / Chasers
«Это было бы обычное задание до первого ареста... будь это обычный арест»
[FullScreen]
Страна: США
Жанр: Комедия
Год выпуска: 1994
Продолжительность: 01:38:41
Перевод: Авторский (одноголосый закадровый) Антон Пронин
Cубтитры: нет
Режиссер: Деннис Хоппер / Dennis Hopper
В ролях: Том Беренджер /Tom Berenger/, Эрика Элениак /Erika Eleniak/, Уильям МакНамара /William McNamara/, Гэри Бьюзи /Gary Busey/, Фредерик Форрест /Frederic Forrest/, Криспин Гловер /Crispin Glover/, Марилу Хеннер /Marilu Henner/, Дин Стокуэлл /Dean Stockwell/, Грэнд Л. Буш /Grand L. Bush/, Мэттью Глэйв /Matthew Glave/, Битти Шрэм /Bitty Schram/, Сеймур Кэссел /Seymour Cassel/, Деннис Хоппер /Dennis Hopper/
Описание: Аннотация от alenavova
Тонко снятая лента о злоключениях двух морских пехотинцев, которые в течение одного дня конвоируют очаровательную девушку из одной тюрьмы в другую. Интеллигентный Эдди с замашками безнесмена, которому остался день до "дембеля" (Уильям МакНамара), и грубый, но с нежным сердцем Рок (Том Беренжер) не сразу проникаются симпатией к находчивой и ловкой Тони (бывшая звезда "Плейбоя" Эрика Элениак), осужденной на 7 лет за попытку бегства из тюрьмы на волю к умирающему брату. Перипетии их приключений отличаются хорошим юмором, а финальная сцена похищения доставит радость поклонникам свободолюбия. Возможно, фильм станет классикой развлекательного кино, так как имеет все компоненты (хороший ритм, остроумные ситуации, глубокую проработку характеров) для успеха у зрителя всех вкусов. В ролях - созвездие актеров: Гэри Бьюзи, Фредерик Форрест, Криспин Гловер, Мэрилу Хеннер, Дин Стокуэлл, Дэннис Хоппер.
Доп. информация: Оцифровка VHS (личный архив) и получение VHSRip alenavova
Эксклюзив для rutracker.org. При размещении данного релиза на других сайтах ссылка на автора alenavova обязательна.

Релиз
Сэмпл: https://yadi.sk/i/PiO7d5XmkPAUB
Качество видео: VHSRip
Формат видео: AVI
Видео: 704x528 (1.33:1), 25 fps, XviD build 50 ~1780 kbps avg, 0.19 bit/pixel
Аудио: 48 kHz, AC3 Dolby Digital, 2/0 (L,R) ch, ~192 kbps

MediaInfo

Конвой - Chasers (by alenavova).avi
Format : AVI
Format/Info : Audio Video Interleave
File size : 1.37 GiB
Duration : 1h 38mn
Overall bit rate : 1 983 Kbps
Movie name : Конвой - Chasers (by alenavova)
Director : by alenavova
Writing application : VirtualDubMod 1.5.10.3 | www.virtualdub-fr.org || (build 2550/release)
Copyright : Edich2
Comment : RuTracker.org
Video
ID : 0
Format : MPEG-4 Visual
Format profile : Advanced Simple@L5
Format settings, BVOP : 1
Format settings, QPel : No
Format settings, GMC : No warppoints
Format settings, Matrix : Custom
Codec ID : XVID
Codec ID/Hint : XviD
Duration : 1h 38mn
Bit rate : 1 781 Kbps
Width : 704 pixels
Height : 528 pixels
Display aspect ratio : 4:3
Frame rate : 25.000 fps
Color space : YUV
Chroma subsampling : 4:2:0
Bit depth : 8 bits
Scan type : Progressive
Compression mode : Lossy
Bits/(Pixel*Frame) : 0.192
Stream size : 1.23 GiB (90%)
Writing library : XviD 1.2.1 (UTC 2008-12-04)
Audio
ID : 1
Format : AC-3
Format/Info : Audio Coding 3
Mode extension : CM (complete main)
Format settings, Endianness : Big
Codec ID : 2000
Duration : 1h 38mn
Bit rate mode : Constant
Bit rate : 192 Kbps
Channel(s) : 2 channels
Channel positions : Front: L R
Sampling rate : 48.0 KHz
Bit depth : 16 bits
Compression mode : Lossy
Stream size : 136 MiB (10%)
Alignment : Split accross interleaves
Interleave, duration : 40 ms (1.00 video frame)
Interleave, preload duration : 500 ms

Скриншоты


To download the content you need:
1. Download and install torrent client [for Windows] or for mobile system
2. Click on [Download]
Attention.
If the test YOU are NOT a ROBOT - does not work, then You are using an outdated browser.
Install the current browser and click on [Download]

Do not work with Yandex browser. Uploading files to them is erroneous.
Security: torrent client is allowed by Kaspersky.

[en.asmlocator.ru].t4597.torrent 
Torrent: Registered [ 2015-12-01 13:55 ] · AA43B5EE1BB7BEFC866D552ED97442225D672C42

Download .torrent

Download

14 KB

Status: checked
Completed: 0 times
Size: 1.37 GB
terms.php
[Profile] [PM]
Display posts:    
Reply to topic

Current time is: 05-Apr 03:44

All times are UTC ± 0



You cannot post new topics in this forum
You cannot reply to topics in this forum
You cannot edit your posts in this forum
You cannot delete your posts in this forum
You cannot vote in polls in this forum
You cannot attach files in this forum
You can download files in this forum
Верим фактам, а не вранью Путина! Факт, что Правительство ведёт Россию к истреблению.
Так как численность населения падает, даже не смотря на приток эмигрантов!
Русская нация вымирает и вырождается, смешиваясь с эмигрантами!
Факт, что военных и граждан предприятий заставляют голосовать за партию Единая Россия и Путина
ПОД СТРАХОМ УВОЛЬНЕНИЯ!
Нам не нужно Правительство, блокирующее личную жизнь, интернет, нарушающее сохранность данных.
Все эти действия финансируются за счёт народа!