Виновный / The Guilty (Энтони Уоллер / Anthony Waller) [2000, Великобритания, США, Канада, Триллер, DVDRip] DVO (Союз-Видео)

Reply to topic
DL-List and Torrent activity
Size:  736 MB   |    Registered:  4 years 3 months   |    Completed:  0 times

Seeder not seen: Never

 
   
 
 
Author Message

star21 ®

Gender: Female

Longevity: 4 years 4 months

Posts: 551945

Location: Екатеринбург

Post 01-Dec-2015 13:59

[Quote]

Виновный / The Guilty
<<Публичная жизнь. Личная тайна. Что-то должно открыться>>
Страна: Великобритания, США, Канада
Жанр: Триллер
Год выпуска: 2000
Продолжительность: 01:47:05
Перевод: Профессиональный (двухголосый закадровый) Союз-Видео
Cубтитры: нет
Режиссер: Энтони Уоллер / Anthony Waller
В ролях: Билл Пуллман, Девон Сава, Габриель Анвар, Анджела Фезерстоун, Джоэнн Уэлли, Дарси Белшер, Джеймс Вулветт, Кен Тремблетт, Джиллиан Барбер, Дункан Фрайзер
Описание: Молодой преуспевающий адвокат Каллум Крейн, поддавшись чарам своей новой сотрудницы и воздействию алкоголя, совершает ужасную ошибку…
Обвиняя адвоката в изнасиловании, молодая женщина начинает его шантажировать, угрожая сломать ему карьеру и разрушить семейную жизнь. Доведенный до отчаяния, Крейн решается на крайние меры — воспользоваться услугами наемного убийцы.
Но дальнейшая цепь невероятных совпадений и шокирующих событий не могла присниться Крейну даже в кошмарном сне!
Доп. информация: Звуковая дорожка ремастерирована, синхронизирована, преобразована в правильное СТЕРЕО (теперь оригинальная речь в тыловых динамиках не звучит) и наложена ale_x2008 при помощи Sony Vegas и VirtualDubMod.
За оцифрованную с VHS дорожку благодарим - Fikaloid

Релиз
Сэмпл: https://yadi.sk/i/nn8_RM3hkTkFV
Качество видео: DVDRip
Формат видео: AVI
Видео: XviD build 46, 608x336 (1.81:1), 25.00 fps, 759 kbps avg, 0.15 bit/pixel
Аудио: AC3 Dolby Digital, 48000Hz, 2/0 (L,R) ch (stereo), 192.00 kbps avg

MediaInfo

Виновный - The Guilty [by ale_x2008].avi
Format : AVI
Format/Info : Audio Video Interleave
File size : 736 MiB
Duration : 1h 47mn
Overall bit rate : 961 Kbps
Movie name : Виновный - The Guilty [by ale_x2008]
Director : by ale_x2008
Writing application : VirtualDubMod 1.5.10.3 (build 2550/release)
Copyright : Edich2
Comment : RuTracker.org
Video
ID : 0
Format : MPEG-4 Visual
Format profile : Advanced Simple@L5
Format settings, BVOP : 1
Format settings, QPel : No
Format settings, GMC : No warppoints
Format settings, Matrix : Custom
Codec ID : XVID
Codec ID/Hint : XviD
Duration : 1h 47mn
Bit rate : 759 Kbps
Width : 608 pixels
Height : 336 pixels
Display aspect ratio : 16:9
Frame rate : 25.000 fps
Color space : YUV
Chroma subsampling : 4:2:0
Bit depth : 8 bits
Scan type : Progressive
Compression mode : Lossy
Bits/(Pixel*Frame) : 0.149
Stream size : 582 MiB (79%)
Writing library : XviD 1.1.2 (UTC 2006-11-01)
Audio
ID : 1
Format : AC-3
Format/Info : Audio Coding 3
Mode extension : CM (complete main)
Format settings, Endianness : Big
Codec ID : 2000
Duration : 1h 47mn
Bit rate mode : Constant
Bit rate : 192 Kbps
Channel(s) : 2 channels
Channel positions : Front: L R
Sampling rate : 48.0 KHz
Bit depth : 16 bits
Compression mode : Lossy
Stream size : 147 MiB (20%)
Alignment : Split accross interleaves
Interleave, duration : 40 ms (1.00 video frame)
Interleave, preload duration : 500 ms

Скриншоты


To download the content you need:
1. Download and install torrent client [for Windows] or for mobile system
2. Click on [Download]
Attention.
If the test YOU are NOT a ROBOT - does not work, then You are using an outdated browser.
Install the current browser and click on [Download]

Do not work with Yandex browser. Uploading files to them is erroneous.
Security: torrent client is allowed by Kaspersky.

[en.asmlocator.ru].t4591.torrent 
Torrent: Registered [ 2015-12-01 13:55 ] · DC56AA3C6773DF8ACE53EDF06BF38487BC9D6844

Download .torrent

Download

15 KB

Status: checked
Completed: 0 times
Size: 736 MB
terms.php
[Profile] [PM]
Display posts:    
Reply to topic

Current time is: 30-Mar 01:23

All times are UTC ± 0



You cannot post new topics in this forum
You cannot reply to topics in this forum
You cannot edit your posts in this forum
You cannot delete your posts in this forum
You cannot vote in polls in this forum
You cannot attach files in this forum
You can download files in this forum
Верим фактам, а не вранью Путина! Факт, что Правительство ведёт Россию к истреблению.
Так как численность населения падает, даже не смотря на приток эмигрантов!
Русская нация вымирает и вырождается, смешиваясь с эмигрантами!
Факт, что военных и граждан предприятий заставляют голосовать за партию Единая Россия и Путина
ПОД СТРАХОМ УВОЛЬНЕНИЯ!
Нам не нужно Правительство, блокирующее личную жизнь, интернет, нарушающее сохранность данных.
Все эти действия финансируются за счёт народа!