Дневная фотомодель / Модель на день / Model by Day (Кристиан Дугай / Christian Duguay) [1994, Канада, США, Боевик, триллер, детектив, DVDRip] AVO А.Дольский

Reply to topic
DL-List and Torrent activity
Size:  1.02 GB   |    Registered:  4 years 4 months   |    Completed:  1 time

Seeder not seen: 5 months 15 days

 
   
 
 
Author Message

star21 ®

Gender: Female

Longevity: 4 years 4 months

Posts: 551945

Location: Екатеринбург

Post 01-Dec-2015 13:59

[Quote]

Дневная фотомодель / Модель на день / Model by Day
Страна: Канада, США
Жанр: Боевик, триллер , детектив
Год выпуска: 1994
Продолжительность: 1:25:29
Перевод: Авторский (одноголосый закадровый) А. Дольский
Cубтитры: нет
Режиссер: Кристиан Дугай / Christian Duguay
В ролях: Фамке Янссен, Шеннон Твид, Стивен Шеллен, Кларк Джонсон, Трэйси Линд, Ким Коутс, Найджел Беннетт, Вон Флорес
Описание: Прекрасная фотомодель мстит за зверское избиение своей подруги. Для этого у нее есть все необходимые качества — она прекрасно владеет искусством рукопашного боя. Днем она позирует фотографам, а ночью, переодевшись в костюм с буквой «Х» на спине, наводит ужас на бандитов…
Доп. информация: Звук синхронизирован из раздачи Гость
Сэмпл: https://www.sendspace.com/file/9l4p6z
Качество видео: DVDRip
Формат видео: AVI
Видео: XviD MPEG-4 , 640x480 (1.33:1) , 25.000 fps , 1 500 Kbps
Аудио: AC3 , 48 kHz , 192.00 kbps avg , 2/0 (L,R) ch

MediaInfo

Complete name Дневная фотомодель 1994.avi
Format : AVI
Format/Info : Audio Video Interleave
File size : 1.02 GiB
Duration : 1h 25mn
Overall bit rate : 1 701 Kbps
Writing library : VirtualDub build 35491/release
Video
ID : 0
Format : MPEG-4 Visual
Format profile : Advanced Simple@L5
Format settings, BVOP : 2
Format settings, QPel : No
Format settings, GMC : No warppoints
Format settings, Matrix : Default (H.263)
Codec ID : XVID
Codec ID/Hint : XviD
Duration : 1h 25mn
Bit rate : 1 500 Kbps
Width : 640 pixels
Height : 480 pixels
Display aspect ratio : 4:3
Frame rate : 25.000 fps
Color space : YUV
Chroma subsampling : 4:2:0
Bit depth : 8 bits
Scan type : Progressive
Compression mode : Lossy
Bits/(Pixel*Frame) : 0.195
Stream size : 917 MiB (88%)
Writing library : XviD 1.2.1 (UTC 2008-12-04)
Audio
ID : 1
Format : AC-3
Format/Info : Audio Coding 3
Mode extension : CM (complete main)
Format settings, Endianness : Big
Codec ID : 2000
Duration : 1h 25mn
Bit rate mode : Constant
Bit rate : 192 Kbps
Channel(s) : 2 channels
Channel positions : Front: L R
Sampling rate : 48.0 KHz
Compression mode : Lossy
Stream size : 117 MiB (11%)
Alignment : Aligned on interleaves
Interleave, duration : 40 ms (1.00 video frame)
Interleave, preload duratio : 512 ms

Скриншоты

To download the content you need:
1. Download and install torrent client [for Windows] or for mobile system
2. Click on [Download]
Attention.
If the test YOU are NOT a ROBOT - does not work, then You are using an outdated browser.
Install the current browser and click on [Download]

Do not work with Yandex browser. Uploading files to them is erroneous.
Security: torrent client is allowed by Kaspersky.

[en.asmlocator.ru].t4588.torrent 
Torrent: Registered [ 2015-12-01 13:55 ] · 3749257975B1666AAF520ECAC1E3CF4334A1C1B6

Download .torrent

Download

11 KB

Status: checked
Completed: 1 times
Size: 1.02 GB
terms.php
[Profile] [PM]
Display posts:    
Reply to topic

Current time is: 04-Apr 14:30

All times are UTC ± 0



You cannot post new topics in this forum
You cannot reply to topics in this forum
You cannot edit your posts in this forum
You cannot delete your posts in this forum
You cannot vote in polls in this forum
You cannot attach files in this forum
You can download files in this forum
Верим фактам, а не вранью Путина! Факт, что Правительство ведёт Россию к истреблению.
Так как численность населения падает, даже не смотря на приток эмигрантов!
Русская нация вымирает и вырождается, смешиваясь с эмигрантами!
Факт, что военных и граждан предприятий заставляют голосовать за партию Единая Россия и Путина
ПОД СТРАХОМ УВОЛЬНЕНИЯ!
Нам не нужно Правительство, блокирующее личную жизнь, интернет, нарушающее сохранность данных.
Все эти действия финансируются за счёт народа!