Ведьма из Блэр 2: Книга теней / Book of Shadows: Blair Witch 2 (Джо Берлингер / Joe Berlinger) [2000, США, ужасы, триллер, криминал, детектив, DVDRip] [Fullscreen] Dub (Мосфильм)

Reply to topic
DL-List and Torrent activity
Size:  1.37 GB   |    Registered:  4 years 3 months   |    Completed:  0 times

Seeder not seen: Never

 
   
 
 
Author Message

star21 ®

Gender: Female

Longevity: 4 years 4 months

Posts: 551945

Location: Екатеринбург

Post 01-Dec-2015 13:59

[Quote]

Ведьма из Блэр 2: Книга теней / Book of Shadows: Blair Witch 2
[Full Screen]
Страна: США
Жанр: ужасы, триллер, криминал, детектив
Год выпуска: 2000
Продолжительность: 01:26:30
Перевод: Профессиональный (дублированный) Мосфильм
Cубтитры: нет
Режиссер: Джо Берлингер / Joe Berlinger
В ролях: Ким Директор, Джеффри Донован, Эрика Лирсен, Тристайн Скайлер, Стивен Баркер Тернер, Курт Лодер, Чак Скарборо, Брюс Рид, Линда Миллард, Дэб Бургойн
Описание: Джефф Донован никогда не был пай-мальчиком. Он всегда был плохим парнем, и его воображение неизменно занимала ведьма из Блэр и легенда, связанная с ней. Джефф организует развлекательный тур «Охота за ведьмой из Блэр». Он проводит экскурсии по знаменитому зловещему лесу и в печально известный дом Растина Парра, совершившего семь убийств по приказанию ведьмы из Блэр. Четверо студентов колледжа отправляются в этот тур и проводят ночь в доме Растина Парра. Наутро они обнаруживают, что не спали, но ни один из них не может вспомнить, что произошло за прошедшие пять часов. Обнаружив странные знаки на своих телах, студенты всё больше убеждаются в том, что стали участниками не развлекательного туристического аттракциона, а были вовлечены в нечто более ужасное. А когда эти студенты вернутся в свой родной город, кто-то или что-то страшное последует за ними.
Доп. информация: За качественный исходник спасибо ostrvskijjp
Релиз
Сэмпл: https://yadi.sk/i/mRhhgpljkVAbK
Качество видео: DVDRip
Формат видео: AVI
Видео: 704x528 (1.33:1), 25 fps, XviD build 50 ~1803 kbps avg, 0.19 bit/pixel
Аудио: 48 kHz, AC3 Dolby Digital, 3/2 (L,C,R,l,r) + LFE ch, ~448 kbps

MediaInfo

Ведьма из Блэр-2. Книга теней - Blair Witch 2 (by ostrvskijjp).avi
Format : AVI
Format/Info : Audio Video Interleave
File size : 1.37 GiB
Duration : 1h 26mn
Overall bit rate : 2 262 Kbps
Movie name : Ведьма из Блэр-2. Книга теней - Blair Witch 2 (by ostrvskijjp)
Director : by by ostrvskijjp
Writing application : VirtualDubMod 1.5.10.2 (build 2540/release)
Copyright : Edich2
Comment : RuTracker.org
Video
ID : 0
Format : MPEG-4 Visual
Format profile : Advanced Simple@L5
Format settings, BVOP : 1
Format settings, QPel : No
Format settings, GMC : No warppoints
Format settings, Matrix : Default (MPEG)
Codec ID : XVID
Codec ID/Hint : XviD
Duration : 1h 26mn
Bit rate : 1 804 Kbps
Width : 704 pixels
Height : 528 pixels
Display aspect ratio : 4:3
Frame rate : 25.000 fps
Color space : YUV
Chroma subsampling : 4:2:0
Bit depth : 8 bits
Scan type : Progressive
Compression mode : Lossy
Bits/(Pixel*Frame) : 0.194
Stream size : 1.09 GiB (80%)
Writing library : XviD 1.2.1 (UTC 2008-12-04)
Audio
ID : 1
Format : AC-3
Format/Info : Audio Coding 3
Mode extension : CM (complete main)
Format settings, Endianness : Big
Codec ID : 2000
Duration : 1h 26mn
Bit rate mode : Constant
Bit rate : 448 Kbps
Channel(s) : 6 channels
Channel positions : Front: L C R, Side: L R, LFE
Sampling rate : 48.0 KHz
Bit depth : 16 bits
Compression mode : Lossy
Stream size : 277 MiB (20%)
Alignment : Split accross interleaves
Interleave, duration : 40 ms (1.00 video frame)
Interleave, preload duration : 500 ms

Скриншоты


16.11.2015 РЕЛИЗ ОБНОВЛЕН. ПОЛНОСТЬЮ ЗАМЕНЕН РИП.

To download the content you need:
1. Download and install torrent client [for Windows] or for mobile system
2. Click on [Download]
Attention.
If the test YOU are NOT a ROBOT - does not work, then You are using an outdated browser.
Install the current browser and click on [Download]

Do not work with Yandex browser. Uploading files to them is erroneous.
Security: torrent client is allowed by Kaspersky.

[en.asmlocator.ru].t4587.torrent 
Torrent: Registered [ 2015-12-01 13:55 ] · 399AEB95E6AD8C3ABE0A78A4C9D28A9BF5979737

Download .torrent

Download

14 KB

Status: checked
Completed: 0 times
Size: 1.37 GB
terms.php
[Profile] [PM]
Display posts:    
Reply to topic

Current time is: 29-Mar 00:06

All times are UTC ± 0



You cannot post new topics in this forum
You cannot reply to topics in this forum
You cannot edit your posts in this forum
You cannot delete your posts in this forum
You cannot vote in polls in this forum
You cannot attach files in this forum
You can download files in this forum
Верим фактам, а не вранью Путина! Факт, что Правительство ведёт Россию к истреблению.
Так как численность населения падает, даже не смотря на приток эмигрантов!
Русская нация вымирает и вырождается, смешиваясь с эмигрантами!
Факт, что военных и граждан предприятий заставляют голосовать за партию Единая Россия и Путина
ПОД СТРАХОМ УВОЛЬНЕНИЯ!
Нам не нужно Правительство, блокирующее личную жизнь, интернет, нарушающее сохранность данных.
Все эти действия финансируются за счёт народа!