Толкачи / Clockers (Спайк Ли / Spike Lee) [1995, США, криминальная драма, HDRip] DVO (Премьер Видео)

Reply to topic
DL-List and Torrent activity
Size:  2.18 GB   |    Registered:  4 years 4 months   |    Completed:  0 times

Seeder not seen: 1 year 1 month

 
   
 
 
Author Message

star21 ®

Gender: Female

Longevity: 4 years 4 months

Posts: 551945

Location: Екатеринбург

Post 01-Dec-2015 13:59

[Quote]

Толкачи / Clockers
Страна: США
Жанр: криминальная драма
Год выпуска: 1995
Продолжительность: 02:08:21
Перевод: Профессиональный (двухголосый закадровый) Премьер Видео
Субтитры: нет
Режиссер: Спайк Ли / Spike Lee
В ролях: Харви Кайтел, Джон Туртурро, Делрой Линдо, Меки Файфер, Кит Дэвид, Реджина Тэйлор, Стики Фингаз
Описание:
Страйк — парень работящий и ответственный. По профессии он — «толкач», то есть тот незаменимый человек, который продаст вам любые наркотики в любое время суток, но «толкать» наркоту, как известно, — дело опасное и неблагодарное; приходится все время быть начеку в ожидании полицейских рейдов. А тут еще одного толкача пристрелили, и два детектива из отдела по расследованию убийств Мазилли и Рокко «вплотную» занялись преступлением.
И если Мазилли готов «засадить» любого из неблагополучных обитателей этого злачного квартала, то его напарник Рокко страстно жаждет найти настоящего убийцу.
Доп. информация:
Рип с BDRip 1080p (СЭМПЛ)
За оцифровку перевода Премьер Видео с лицензионной Hi-Fi VHS спасибо . Мужские роли озвучивал Всеволод Кузнецов.

Отчет MediaInfo

General
Complete name : D:\Кино\Clockers.1995.HDRip-PV.avi
Format : AVI
Format/Info : Audio Video Interleave
Format profile : OpenDML
File size : 2.18 GiB
Duration : 2h 8mn
Overall bit rate : 2 435 Kbps
Writing application : VirtualDubMod 1.5.10.2 (build 2540/release)
Writing library : VirtualDubMod build 2540/release
Video
ID : 0
Format : MPEG-4 Visual
Format profile : Advanced Simple@L5
Format settings, BVOP : Yes
Format settings, QPel : No
Format settings, GMC : No warppoints
Format settings, Matrix : Default (MPEG)
Codec ID : XVID
Codec ID/Hint : XviD
Duration : 2h 8mn
Bit rate : 2 231 Kbps
Width : 704 pixels
Height : 384 pixels
Display aspect ratio : 1.85:1
Frame rate : 23.976 fps
Color space : YUV
Chroma subsampling : 4:2:0
Bit depth : 8 bits
Scan type : Progressive
Compression mode : Lossy
Bits/(Pixel*Frame) : 0.344
Stream size : 2.00 GiB (92%)
Writing library : XviD 64
Audio
ID : 1
Format : AC-3
Format/Info : Audio Coding 3
Mode extension : CM (complete main)
Format settings, Endianness : Big
Codec ID : 2000
Duration : 2h 8mn
Bit rate mode : Constant
Bit rate : 192 Kbps
Channel count : 2 channels
Channel positions : Front: L R
Sampling rate : 48.0 KHz
Bit depth : 16 bits
Compression mode : Lossy
Stream size : 176 MiB (8%)
Alignment : Split accross interleaves
Interleave, duration : 42 ms (1.00 video frame)
Interleave, preload duration : 500 ms
Качество видео: HDRip
Формат видео: AVI
Видео: 704x384, 23.976 fps, XviD ~2231 kbps avg, 0.344 bit/pixel
Аудио: 48 kHz, AC3 Dolby Digital, 2/0 (L,R) ch, ~192 kbps [Премьер Видео] VHSRip

скриншоты


To download the content you need:
1. Download and install torrent client [for Windows] or for mobile system
2. Click on [Download]
Attention.
If the test YOU are NOT a ROBOT - does not work, then You are using an outdated browser.
Install the current browser and click on [Download]

Do not work with Yandex browser. Uploading files to them is erroneous.
Security: torrent client is allowed by Kaspersky.

[en.asmlocator.ru].t4584.torrent 
Torrent: Registered [ 2015-12-01 13:55 ] · 658C50ECF4DF504A59F4E507A6E357BB27FC8B5C

Download .torrent

Download

3 KB

Status: checked
Completed: 0 times
Size: 2.18 GB
terms.php
[Profile] [PM]
Display posts:    
Reply to topic

Current time is: 03-Apr 03:55

All times are UTC ± 0



You cannot post new topics in this forum
You cannot reply to topics in this forum
You cannot edit your posts in this forum
You cannot delete your posts in this forum
You cannot vote in polls in this forum
You cannot attach files in this forum
You can download files in this forum
Верим фактам, а не вранью Путина! Факт, что Правительство ведёт Россию к истреблению.
Так как численность населения падает, даже не смотря на приток эмигрантов!
Русская нация вымирает и вырождается, смешиваясь с эмигрантами!
Факт, что военных и граждан предприятий заставляют голосовать за партию Единая Россия и Путина
ПОД СТРАХОМ УВОЛЬНЕНИЯ!
Нам не нужно Правительство, блокирующее личную жизнь, интернет, нарушающее сохранность данных.
Все эти действия финансируются за счёт народа!