Телохранитель / The Bodyguard (Мик Джексон / Mick Jackson) [1992, США, Драма, Мелодрама, Триллер, VHSRip] VO (Весельчак)

Reply to topic
DL-List and Torrent activity
Size:  1.46 GB   |    Registered:  4 years 4 months   |    Completed:  1 time

Seeder not seen: 5 months 15 days

 
   
 
 
Author Message

star21 ®

Gender: Female

Longevity: 4 years 4 months

Posts: 551945

Location: Екатеринбург

Post 01-Dec-2015 13:59

[Quote]

Телохранитель / The Bodyguard
«Ни на миг не упускать ее из вида. Ни на секунду не терять бдительность. Не позволить себе в нее влюбиться»
Страна: США
Жанр: Драма, Мелодрама, Триллер
Год выпуска: 1992
Продолжительность: 02:03:58
Перевод: Одноголосый закадровый "Весельчак"
Cубтитры: нет
Режиссер: Мик Джексон / Mick Jackson
В ролях: Кевин Костнер /Kevin Kostner, Уитни Хьюстон /Whitney Houston, Гэри Кемп /Gary Kemp, Билл Коббс /Bill Cobbs, Ралф Уэйт /Ralph Waite, Де Вон Никсон /De Vaughn Nixon, Мишель Ламар Ричардс /Michele Lamar Richards, Кристофер Берт /Christopher Birt, Майк Старр /Mike Starr, Томас Арана /Tomas Arana
Описание: Аннотация от alenavova-1
Картина с отличной музыкой и первоклассными актерскими ролями. Рэйчел пела, и голос ее звучал отовсюду: из динамиков радиоприемников и с экранов телевизоров, с эстрадной сцены и из соседней комнаты. Фармер, когда-то охранявший президентов США Картера и Рейгана, теперь пытался обеспечить безопасность рок-певицы, потому что у него была такая работа - телохранитель. ...А Он решил повторить свои угрозы. Он уже вырезал из газет и журналов буквы и наклеивал их на чистый лист бумаги. Буквы складывались в слова: "У тебя есть все, у меня - ничего. Я убью тебя, Рэйчел!.."Песня разносилась по всему дому, по всему саду, по всему залу, где собрались толпы поклонников Рэйчел, потому что "женщина, которая поет" заявила: "Этому сумасшедшему никогда не разлучить меня с эстрадой". ...А Он понял, что у него есть серьезный противник - телохранитель Фармер!
Аннотация от alenavova-2
Теперь она в безопасности. Защищена от толп визжащих, толкающих ее фанов. От навязчивых сумасшедших, внезапно оказывающихся рядом. От неизвестного убийцы, выслеживающего каждый ее шаг. Она в руках "Телохранителя". В этом фильме есть все: напряжение, ужас, любовь, опасность, страсть и сверкающий талант двух великих звезд: Кевина Костнера и Уитни Хьюстон. А саундтрек к фильму (включающий такие песни Хьюстон, как ''Я всегда буду любить тебя" из репертуара Долли Партон, и "У меня ничего нет") стал хитом номер один. В фильме "Телохранитель", ставшем дебютом Хьюстон в кино, она играет Рэйчел Мэррон, певицу и кинозвезду в самом расцвете своей карьеры. Поклонники хотят видеть, ее, слышать ее, прикоснуться к ней. Но один из них хочет ее убить. Полная блеска жизнь звезды подвергается риску. И тут появляется эксперт службы безопасности Фрэнк Фармер (К.Костнер). Он - профессионал, и никогда не теряет бдительности. Каждый считает, что контролирует ситуацию. Но им и в голову не приходит, что они могут влюбиться друг в друга...
Доп. информация: Оцифровка VHS (личный архив) и получение VHSRip alenavova
Эксклюзив для rutracker.org. При размещении данного релиза на других сайтах ссылка на автора alenavova обязательна.

Релиз
Сэмпл: https://yadi.sk/i/4nwi6KxTkXE7C
Качество видео: VHSRip
Формат видео: AVI
Видео: 704x528 (1.33:1), 25 fps, XviD build 73 ~1489 kbps avg, 0.16 bit/pixel
Аудио: 48 kHz, AC3 Dolby Digital, 2/0 (L,R) ch, ~192 kbps

MediaInfo

Телохранитель - The Bodyguard (by alenavova).avi
Format : AVI
Format/Info : Audio Video Interleave
File size : 1.46 GiB
Duration : 2h 3mn
Overall bit rate : 1 691 Kbps
Movie name : Телохранитель - The Bodyguard (by alenavova)
Director : by alenavova
Writing application : VirtualDubMod 1.5.10.3 | www.virtualdub-fr.org || (build 2550/release)
Copyright : Edich2
Comment : RuTracker.org
Video
ID : 0
Format : MPEG-4 Visual
Format profile : Advanced Simple@L5
Format settings, BVOP : 2
Format settings, QPel : No
Format settings, GMC : No warppoints
Format settings, Matrix : Custom
Codec ID : XVID
Codec ID/Hint : XviD
Duration : 2h 3mn
Bit rate : 1 489 Kbps
Width : 704 pixels
Height : 528 pixels
Display aspect ratio : 4:3
Frame rate : 25.000 fps
Color space : YUV
Chroma subsampling : 4:2:0
Bit depth : 8 bits
Scan type : Progressive
Compression mode : Lossy
Bits/(Pixel*Frame) : 0.160
Stream size : 1.29 GiB (88%)
Writing library : XviD 73
Audio
ID : 1
Format : AC-3
Format/Info : Audio Coding 3
Mode extension : CM (complete main)
Format settings, Endianness : Big
Codec ID : 2000
Duration : 2h 3mn
Bit rate mode : Constant
Bit rate : 192 Kbps
Channel(s) : 2 channels
Channel positions : Front: L R
Sampling rate : 48.0 KHz
Bit depth : 16 bits
Compression mode : Lossy
Stream size : 170 MiB (11%)
Alignment : Split accross interleaves
Interleave, duration : 40 ms (1.00 video frame)
Interleave, preload duration : 500 ms

Скриншоты


To download the content you need:
1. Download and install torrent client [for Windows] or for mobile system
2. Click on [Download]
Attention.
If the test YOU are NOT a ROBOT - does not work, then You are using an outdated browser.
Install the current browser and click on [Download]

Do not work with Yandex browser. Uploading files to them is erroneous.
Security: torrent client is allowed by Kaspersky.

[en.asmlocator.ru].t4583.torrent 
Torrent: Registered [ 2015-12-01 13:55 ] · 3DD0E222A54D633E05484E66FA85AB2E6AEB0C7B

Download .torrent

Download

15 KB

Status: checked
Completed: 1 times
Size: 1.46 GB
terms.php
[Profile] [PM]
Display posts:    
Reply to topic

Current time is: 04-Apr 15:00

All times are UTC ± 0



You cannot post new topics in this forum
You cannot reply to topics in this forum
You cannot edit your posts in this forum
You cannot delete your posts in this forum
You cannot vote in polls in this forum
You cannot attach files in this forum
You can download files in this forum
Верим фактам, а не вранью Путина! Факт, что Правительство ведёт Россию к истреблению.
Так как численность населения падает, даже не смотря на приток эмигрантов!
Русская нация вымирает и вырождается, смешиваясь с эмигрантами!
Факт, что военных и граждан предприятий заставляют голосовать за партию Единая Россия и Путина
ПОД СТРАХОМ УВОЛЬНЕНИЯ!
Нам не нужно Правительство, блокирующее личную жизнь, интернет, нарушающее сохранность данных.
Все эти действия финансируются за счёт народа!