Обнаженная девушка с обложки / Девушка с разворота / Centerfold (Келли Котэн / Kelley Cauthen) [1996, США, Эротика, драма, VHSRip] DVO (Так треба продакшн)

Reply to topic
DL-List and Torrent activity
Size:  1.29 GB   |    Registered:  4 years 4 months   |    Completed:  0 times

Seeder not seen: 1 year 1 month

 
   
 
 
Author Message

star21 ®

Gender: Female

Longevity: 4 years 5 months

Posts: 551945

Location: Екатеринбург

Post 01-Dec-2015 13:59

[Quote]

Обнаженная девушка с обложки / Девушка с разворота / Centerfold
Страна: США
Жанр: драма + большая капля эротики
Год выпуска: 1996
Продолжительность: 01:25:01
Перевод: Профессиональный (двухголосый закадровый) Так треба продакшн
Cубтитры: нет
Режиссер: Келли Котэн / Kelley Cauthen
В ролях: Шерил Бартел, Габриэлла Холл, Эд Хаззард, Джастин Лоэр, Кристофер Малеки, Дж.Дж. Мантия, Майкл Джон Мейер, Анджела Миа, Антонио де Сантьяго, Алексис Райт
Описание: Гейл, молодая талантливая актриса, которая стремится к успеху, обдумывает предложение сняться обнаженной для обложки престижного мужского журнала в надежде, что это поможет ее карьере. Но Гейл пугают люди, с которыми ей приходится сталкиваться в новом бизнесе, так как главными для них есть всего две вещи: деньги и страсть..
Сэмпл: https://yadi.sk/i/pPqHMDrrkYAhs
Качество видео: VHSRip
Формат видео: AVI
Видео: 640x480 (1.33:1), 29.970 fps, XviD build 50 ~2032 kbps avg, 0.22 bit/pixel
Аудио: 44.100 kHz, MPEG Layer 3, 2 ch, ~128.00 kbps avg

MediaInfo

Обнаженная девушка с обложки [Девушка с разворота] - Centerfold.avi
Format : AVI
Format/Info : Audio Video Interleave
Format profile : OpenDML
File size : 1.29 GiB
Duration : 1h 25mn
Overall bit rate : 2 169 Kbps
Writing application : MEncoder SVN-r33883(20110719-gcc4.5.2)
Writing library : MPlayer
Video
ID : 0
Format : MPEG-4 Visual
Format profile : Advanced Simple@L5
Format settings, BVOP : 2
Format settings, QPel : No
Format settings, GMC : No warppoints
Format settings, Matrix : Default (H.263)
Codec ID : XVID
Codec ID/Hint : XviD
Duration : 1h 25mn
Bit rate : 2 026 Kbps
Width : 640 pixels
Height : 480 pixels
Display aspect ratio : 3:2
Original display aspect ratio : 4:3
Frame rate : 29.970 fps
Color space : YUV
Chroma subsampling : 4:2:0
Bit depth : 8 bits
Scan type : Progressive
Compression mode : Lossy
Bits/(Pixel*Frame) : 0.220
Stream size : 1.20 GiB (93%)
Writing library : XviD 1.2.1 (UTC 2008-12-04)
Audio
ID : 1
Format : MPEG Audio
Format version : Version 1
Format profile : Layer 3
Mode : Joint stereo
Codec ID : 55
Codec ID/Hint : MP3
Duration : 1h 25mn
Bit rate mode : Constant
Bit rate : 128 Kbps
Channel(s) : 2 channels
Sampling rate : 44.1 KHz
Compression mode : Lossy
Delay relative to video : 33ms
Stream size : 77.8 MiB (6%)
Alignment : Aligned on interleaves
Interleave, duration : 26 ms (0.78 video frame)
Interleave, preload duration : 522 ms
Writing library : LAME3.98.4ЄЄЄЄЄЄЄЄЄЄ

Скриншоты для всех


Скриншоты не для всех 16+



To download the content you need:
1. Download and install torrent client [for Windows] or for mobile system
2. Click on [Download]
Attention.
If the test YOU are NOT a ROBOT - does not work, then You are using an outdated browser.
Install the current browser and click on [Download]

Do not work with Yandex browser. Uploading files to them is erroneous.
Security: torrent client is allowed by Kaspersky.

[en.asmlocator.ru].t4579.torrent 
Torrent: Registered [ 2015-12-01 13:55 ] · 5014C4C9FD5CDA8E92113FE410D41BCEE7BA7F51

Download .torrent

Download

13 KB

Status: checked
Completed: 0 times
Size: 1.29 GB
terms.php
[Profile] [PM]
Display posts:    
Reply to topic

Current time is: 10-Apr 08:18

All times are UTC ± 0



You cannot post new topics in this forum
You cannot reply to topics in this forum
You cannot edit your posts in this forum
You cannot delete your posts in this forum
You cannot vote in polls in this forum
You cannot attach files in this forum
You can download files in this forum
Верим фактам, а не вранью Путина! Факт, что Правительство ведёт Россию к истреблению.
Так как численность населения падает, даже не смотря на приток эмигрантов!
Русская нация вымирает и вырождается, смешиваясь с эмигрантами!
Факт, что военных и граждан предприятий заставляют голосовать за партию Единая Россия и Путина
ПОД СТРАХОМ УВОЛЬНЕНИЯ!
Нам не нужно Правительство, блокирующее личную жизнь, интернет, нарушающее сохранность данных.
Все эти действия финансируются за счёт народа!