По газам! / Гараж / All Revved Up / O.K. Garage (Брэндон Коул / Brandon Cole) [1998, США, драма, комедия, криминал, DVDRip] VO

Reply to topic
DL-List and Torrent activity
Size:  1.37 GB   |    Registered:  4 years 4 months   |    Completed:  0 times

Seeder not seen: Never

 
   
 
 
Author Message

star21 ®

Gender: Female

Longevity: 4 years 4 months

Posts: 551945

Location: Екатеринбург

Post 01-Dec-2015 13:59

[Quote]

По газам! / Гараж / All Revved Up / O.K. Garage
«Негодяи заплатят по счетам»
Страна: США
Жанр: драма, комедия, криминал
Год выпуска: 1998
Продолжительность: 01:25:49
Перевод: Одноголосый закадровый [ПОМОГИТЕ ОПОЗНАТЬ]
Cубтитры: нет
Режиссер: Брэндон Коул / Brandon Cole
В ролях: Джон Туртурро /John Turturro/, Лили Тэйлор /Lili Taylor/, Уилл Пэттон /Will Patton/, Джо Мэхер /Joe Maher/, Джон Спенсер /John Spencer/, Олек Крупа /Olek Krupa/, Ричард Брайт /Richard Bright/, Брюс МакВитти /Bruce MacVittie/, Пол Калдерон /Paul Calderon/, Аида Туртурро /Aida Turturro/, Бетти Миллер /Betty Miller/, Джемма Джоунс /Gemma Jones/
Описание: Вариант 1. Джон Туртурро снова играет чудаковатого Джонни Канделлано, который не может подойти к кассирше в банке и признаться, что она ему нравится. Учительница Рэйчел (Лили Тэйлор) отдает машину в ремонт, и Янник (Олек Крупа), занимающийся темными делишками с угнанными машинами, "сдирает" с нее 475 долларов. Шон (Уилл Пэттон), странноватый тип, не расстающийся с маленькими ящерицами, объясняет Рэйчел, что как только женщины начинают интересоваться Джонни, он сразу теряет к ним интерес. Эти два чудака-неудачника объединяют усилия, чтобы отомстить жулику Яннику, и вернуть деньги Рэйчел, желая хоть что-нибудь совершить в своей абсурдной и бесцельной жизни. (Иванов М.)
Вариант 2. После того, как учительницу Рэйчел (Лили Тейлор) обманули, «содрав» с неё огромную сумму в 475 долларов за ремонт машины, она объединяется с чудаковатым типом Джонни Канделлано (Джон Туртурро), который робеет при общении с женщинами, и таким же странноватым неудачником Шоном (Уилл Пэттон), который не расстается с маленькими ящерицами, чтобы отомстить беспощадному владельцу гаража жулику Яннику (Олек Крупа) и вернуть деньги.
Вариант 3. Коварный Янник, владелец автосервиса, ворует машины и обманывает своих клиентов. Школьная учительница Рэчел, по наивности доверившая ему свой автомобиль, потратила все свои жалкие сбережения на попытки получить его обратно.
Сплотившись с другими пострадавшими — Шоном, помешанном на разведении ящериц, и Джонни, не знающим, что делать с неудавшейся жизнью, — она хочет наказать лживого и расчетливого вора. Вместе, представляя собой грозную силу, готовую нанести решающий удар за все прошлые поражения, они сходятся в яростном поединке с поверившим в свою безнаказанность Янником…
Доп. информация: Благодарность:
Анна57 - за дорожку AVO
xelon2006 - за синхрон дорожки.

Релиз
Сэмпл: https://yadi.sk/i/lKMpL6MfkZEJk
Качество видео: DVDRip
Формат видео: AVI
Видео: 704x384 (1.83:1), 23.976 fps, XviD build 50 ~2078 kbps avg, 0.32 bit/pixel
Аудио: 48 kHz, AC3 Dolby Digital, 2/0 (L,R) ch, ~192 kbps

MediaInfo

Гараж All Revved Up [O.K. Garage] [by Edich2].avi
Format : AVI
Format/Info : Audio Video Interleave
File size : 1.37 GiB
Duration : 1h 25mn
Overall bit rate : 2 280 Kbps
Movie name : Гараж All Revved Up [O.K. Garage] [by Edich2]
Director : by Edich2
Writing application : VirtualDubMod 1.5.10.2 (build 2540/release)
Comment : RuTracker.org
Video
ID : 0
Format : MPEG-4 Visual
Format profile : Advanced Simple@L5
Format settings, BVOP : 1
Format settings, QPel : No
Format settings, GMC : No warppoints
Format settings, Matrix : Custom
Codec ID : XVID
Codec ID/Hint : XviD
Duration : 1h 25mn
Bit rate : 2 079 Kbps
Width : 704 pixels
Height : 384 pixels
Display aspect ratio : 1.85:1
Frame rate : 23.976 fps
Color space : YUV
Chroma subsampling : 4:2:0
Bit depth : 8 bits
Scan type : Progressive
Compression mode : Lossy
Bits/(Pixel*Frame) : 0.321
Stream size : 1.25 GiB (91%)
Writing library : XviD 1.2.1 (UTC 2008-12-04)
Audio
ID : 1
Format : AC-3
Format/Info : Audio Coding 3
Mode extension : CM (complete main)
Format settings, Endianness : Big
Codec ID : 2000
Duration : 1h 25mn
Bit rate mode : Constant
Bit rate : 192 Kbps
Channel(s) : 2 channels
Channel positions : Front: L R
Sampling rate : 48.0 KHz
Bit depth : 16 bits
Compression mode : Lossy
Stream size : 118 MiB (8%)
Alignment : Split accross interleaves
Interleave, duration : 42 ms (1.00 video frame)
Interleave, preload duration : 500 ms

Скриншоты


To download the content you need:
1. Download and install torrent client [for Windows] or for mobile system
2. Click on [Download]
Attention.
If the test YOU are NOT a ROBOT - does not work, then You are using an outdated browser.
Install the current browser and click on [Download]

Do not work with Yandex browser. Uploading files to them is erroneous.
Security: torrent client is allowed by Kaspersky.

[en.asmlocator.ru].t4578.torrent 
Torrent: Registered [ 2015-12-01 13:55 ] · BF205857D79FAD7D204B5D0F54EE9813A35F255B

Download .torrent

Download

14 KB

Status: checked
Completed: 0 times
Size: 1.37 GB
terms.php
[Profile] [PM]
Display posts:    
Reply to topic

Current time is: 04-Apr 14:46

All times are UTC ± 0



You cannot post new topics in this forum
You cannot reply to topics in this forum
You cannot edit your posts in this forum
You cannot delete your posts in this forum
You cannot vote in polls in this forum
You cannot attach files in this forum
You can download files in this forum
Верим фактам, а не вранью Путина! Факт, что Правительство ведёт Россию к истреблению.
Так как численность населения падает, даже не смотря на приток эмигрантов!
Русская нация вымирает и вырождается, смешиваясь с эмигрантами!
Факт, что военных и граждан предприятий заставляют голосовать за партию Единая Россия и Путина
ПОД СТРАХОМ УВОЛЬНЕНИЯ!
Нам не нужно Правительство, блокирующее личную жизнь, интернет, нарушающее сохранность данных.
Все эти действия финансируются за счёт народа!