Полночь в Санкт-Петербурге / Midnight in Saint Petersburg (Даг Джексон / Douglas Jackson) [1996, США, Россия, детектив, DVDRip] DVO

Reply to topic
DL-List and Torrent activity
Size:  1.43 GB   |    Registered:  4 years 3 months   |    Completed:  0 times

Seeder not seen: 1 year 1 month

 
   
 
 
Author Message

star21 ®

Gender: Female

Longevity: 4 years 4 months

Posts: 551945

Location: Екатеринбург

Post 01-Dec-2015 13:59

[Quote]

Полночь в Санкт-Петербурге / Midnight in Saint Petersburg
Страна: США, Россия
Жанр: детектив
Год выпуска: 1996
Продолжительность: 1:25:57
Перевод: Профессиональный (двухголосый закадровый)
Cубтитры: нет
Оригинальная аудиодорожка: нет
Режиссер: Даг Джексон / Douglas Jackson
В ролях: Майкл Кейн, Джейсон Коннери, Мишель Рене Томас, Майкл Гэмбон, Майкл Сэррэзин, Таня Джексон, Серж Хоуде, Анатолий Давыдов, Власта Врана, Джон Данн-Хилл, Лев Прыгунов, Ольга Анохина, Евгений Жариков
Описание: Экранизация второй части книги Лена Дайтона. Чудом оставшись в живых после приключений первого фильма "Экспресс до Бейджина", бывший английский разведчик (Майкл Кэйн), основавший в России частное сыскное бюро вместе со своими бывшими врагами, и его молодой коллега Николай (Коннери), получают в цирке новое задание. Гонорар за возвращение 1000 грамм плутония - 250000 долларов.
Наброски персонажей налились красками, стали выпуклыми, обрели личную жизнь, все более приобретая свойства, присущие телесериалам. Зритель начинает привыкать к ним и расставлять свои симпатии. Приятно радует отсутствие "клюквы" и чрезмерной чернухи. Это и не удивительно. Лен Дайтон всегда хорошо изучает предмет, и романы его весьма популярны на Западе. Евгений Жариков в роли отца похищенной невесты Николая.
Доп. информация: Русская дорожка отсюда (спасибо MacSim47)
Сэмпл: http://multi-up.com/1075857
Качество видео: DVDRip
Формат видео: AVI
Видео: XviD, 704x528 (1.33:1), 25 fps, ~2250 kbps
Аудио: MPEG Layer 3, 48 kHz, 2 ch, 128.00 kbps - русский

MediaInfo

Общее
Полное имя : D:\Petersburg\Midnight in Saint Petersburg [DVDRip].avi
Формат : AVI
Формат/Информация : Audio Video Interleave
Размер файла : 1,43 Гбайт
Продолжительность : 1 ч. 25 м.
Общий поток : 2387 Кбит/сек
Программа кодирования : VirtualDubMod 1.5.10.2 (build 2540/release)
Библиотека кодирования : VirtualDubMod build 2540/release
Видео
Идентификатор : 0
Формат : MPEG-4 Visual
Профиль формата : Advanced Simple@L5
Параметр BVOP формата : 1
Параметр QPel формата : Нет
Параметр GMC формата : Без точки перехода
Параметр матрицы формата : Default (MPEG)
Идентификатор кодека : XVID
Идентификатор кодека/Подсказка : XviD
Продолжительность : 1 ч. 25 м.
Битрейт : 2250 Кбит/сек
Ширина : 704 пикселя
Высота : 528 пикселей
Соотношение сторон : 4:3
Частота кадров : 25,000 кадров/сек
Цветовое пространство : YUV
Субдискретизация насыщенности : 4:2:0
Битовая глубина : 8 бит
Тип развёртки : Прогрессивная
Метод сжатия : С потерями
Бит/(Пиксели*Кадры) : 0.242
Размер потока : 1,35 Гбайт (94%)
Библиотека кодирования : XviD 1.2.1 (UTC 2008-12-04)
Аудио
Идентификатор : 1
Формат : MPEG Audio
Версия формата : Version 1
Профиль формата : Layer 3
Идентификатор кодека : 55
Идентификатор кодека/Подсказка : MP3
Продолжительность : 1 ч. 25 м.
Вид битрейта : Постоянный
Битрейт : 128 Кбит/сек
Каналы : 2 канала
Частота : 48,0 КГц
Метод сжатия : С потерями
Размер потока : 78,7 Мбайт (5%)
Выравнивание : Соединение по промежуткам
Продолжительность промежутка : 40 мс. (1,00 видеокадр)
Время предзагрузки промежутка : 504 мс.

Скриншот c названием фильма

Скриншоты

To download the content you need:
1. Download and install torrent client [for Windows] or for mobile system
2. Click on [Download]
Attention.
If the test YOU are NOT a ROBOT - does not work, then You are using an outdated browser.
Install the current browser and click on [Download]

Do not work with Yandex browser. Uploading files to them is erroneous.
Security: torrent client is allowed by Kaspersky.

[en.asmlocator.ru].t4577.torrent 
Torrent: Registered [ 2015-12-01 13:55 ] · 12FBE6E95F0230238FF2473D2C196C264A52F706

Download .torrent

Download

15 KB

Status: checked
Completed: 0 times
Size: 1.43 GB
terms.php
[Profile] [PM]
Display posts:    
Reply to topic

Current time is: 31-Mar 19:47

All times are UTC ± 0



You cannot post new topics in this forum
You cannot reply to topics in this forum
You cannot edit your posts in this forum
You cannot delete your posts in this forum
You cannot vote in polls in this forum
You cannot attach files in this forum
You can download files in this forum
Верим фактам, а не вранью Путина! Факт, что Правительство ведёт Россию к истреблению.
Так как численность населения падает, даже не смотря на приток эмигрантов!
Русская нация вымирает и вырождается, смешиваясь с эмигрантами!
Факт, что военных и граждан предприятий заставляют голосовать за партию Единая Россия и Путина
ПОД СТРАХОМ УВОЛЬНЕНИЯ!
Нам не нужно Правительство, блокирующее личную жизнь, интернет, нарушающее сохранность данных.
Все эти действия финансируются за счёт народа!