Плохие парни / Bad Boys (Майкл Бэй / Michael Bay) [1995, США, боевик, триллер, драма, комедия, криминал, BDRip-AVC] [4K Remastered] Dub + AVO (Гаврилов) + Original Eng, Sub (Rus, Eng)

Reply to topic
DL-List and Torrent activity
Size:  4.67 GB   |    Registered:  4 years 4 months   |    Completed:  0 times

Seeder not seen: Never

 
   
 
 
Author Message

star21 ®

Gender: Female

Longevity: 4 years 5 months

Posts: 551945

Location: Екатеринбург

Post 01-Dec-2015 13:59

[Quote]

Плохие парни / Bad Boys
Страна: США / Don Simpson / Jerry Bruckheimer Films
Жанр: боевик, триллер, драма, комедия, криминал
Год выпуска: 1995
Продолжительность: 01:58:50
Перевод: Профессиональный (дублированный)
Перевод 2: Авторский (одноголосый закадровый) Гаврилов
Cубтитры: английские
Оригинальная аудиодорожка: английский
Режиссер: Майкл Бэй / Michael Bay
В ролях: Уилл Смит (Mike Lowrey), Мартин Лоуренс (Marcus Burnett), Теа Леони (Julie Mott), Чеки Карио (Fouchet), Джо Пантольяно (Captain Howard), Марг Хельгенбергер (Alison Sinclair), Нестор Серрано (Detective Sanchez), Хулио Оскар Мечосо (Detective Ruiz), Тереза Рэндл (Theresa Burnett)
Описание: Они — полная противоположность друг друга. Один из них — примерный семьянин и не имеет состояния, другой богат и пользуется всеми благами холостяцкой жизни. Помимо дружбы их объединяет работа в полиции.
Их новое задание — поймать жестокого преступника, укравшего наркотики с секретного склада, а также спасти девушку, которая случайно оказалась на его пути. Но для этого друзьям придется поменяться местами…--Качество видео: BDRip-AVC Bad Boys Duology 1995 2003 4K Mastered Blu ray Remux 1080p AVC DTS HD MA 5 1 HomeTheater
Формат видео: MKV
Видео: 1040x562 (1.85:1), 23,976 fps, 4166 Кbps, 0.297 bit/pixe
Аудио 1: 48 kHz, AC3 Dolby Digital, 3/2 (L,C,R,l,r) + LFE ch, ~448.00 kbps avg / Dub
Аудио 2: 48 kHz, AC3 Dolby Digital, 3/2 (L,C,R,l,r) + LFE ch, ~448.00 kbps avg / AVO / Гаврилов
Аудио 3: 48 kHz, AC3 Dolby Digital, 3/2 (L,C,R,l,r) + LFE ch, ~448.00 kbps avg / ENG
Субтитры : русские, английские.

MediaInfo

х264

x264 [info]: profile High, level 4.1
x264 [info]: cabac=1 ref=11 deblock=1:-3:-3 analyse=0x3:0x113 me=umh subme=11 psy=1 fade_compensate=0.00 psy_rd=0.97:0.07 mixed_ref=1 me_range=32 chroma_me=1 trellis=2 8x8dct=1 cqm=0 deadzone=21,11 fast_pskip=0 chroma_qp_offset=0 threads=6 lookahead_threads=1 sliced_threads=0 nr=0 decimate=1 interlaced=0 bluray_compat=0 constrained_intra=0 fgo=0 bframes=11 b_pyramid=2 b_adapt=2 b_bias=0 direct=1 weightb=1 open_gop=0 weightp=2 keyint=250 keyint_min=23 scenecut=40 intra_refresh=0 rc_lookahead=60 rc=crf mbtree=0 crf=19.7000 qcomp=0.63 qpmin=0 qpmax=69 qpstep=4 vbv_maxrate=62500 vbv_bufsize=50000 crf_max=0.0 nal_hrd=none filler=0 ip_ratio=1.40 pb_ratio=1.25 aq=3:1.00
x264 [info]: frame I:1407 Avg QP:17.22 size: 79404 PSNR Mean Y:45.12 U:46.12 V:47.99 Avg:45.61 Global:45.12
x264 [info]: frame P:36733 Avg QP:18.90 size: 39901 PSNR Mean Y:43.92 U:46.09 V:48.09 Avg:44.65 Global:44.05
x264 [info]: frame B:132812 Avg QP:20.99 size: 16814 PSNR Mean Y:42.53 U:45.54 V:47.75 Avg:43.44 Global:42.99
x264 [info]: consecutive B-frames: 2.6% 2.6% 5.5% 19.1% 18.4% 38.6% 7.1% 4.1% 1.1% 0.5% 0.3% 0.2%
x264 [info]: mb I I16..4: 11.0% 73.9% 15.1%
x264 [info]: mb P I16..4: 1.1% 24.6% 2.0% P16..4: 25.4% 31.4% 10.5% 0.0% 0.0% skip: 5.0%
x264 [info]: mb B I16..4: 0.1% 3.1% 0.3% B16..8: 39.2% 22.4% 5.3% direct: 5.9% skip:23.8% L0:45.3% L1:45.8% BI: 8.8%
x264 [info]: 8x8 transform intra:87.5% inter:60.2%
x264 [info]: coded y,uvDC,uvAC intra: 90.6% 79.0% 49.7% inter: 38.5% 22.3% 2.5%
x264 [info]: i16 v,h,dc,p: 51% 12% 12% 26%
x264 [info]: i8 v,h,dc,ddl,ddr,vr,hd,vl,hu: 10% 6% 14% 10% 13% 12% 12% 11% 12%
x264 [info]: i4 v,h,dc,ddl,ddr,vr,hd,vl,hu: 33% 6% 7% 7% 10% 11% 9% 9% 9%
x264 [info]: i8c dc,h,v,p: 35% 27% 20% 19%
x264 [info]: Weighted P-Frames: Y:4.7% UV:3.4%
x264 [info]: ref P L0: 40.9% 9.9% 18.7% 7.5% 6.4% 4.4% 4.0% 2.2% 2.2% 1.7% 1.8% 0.2% 0.0%
x264 [info]: ref B L0: 68.9% 12.5% 6.5% 3.6% 2.6% 2.2% 1.7% 1.1% 0.6% 0.3%
x264 [info]: ref B L1: 92.1% 7.9%
x264 [info]: SSIM Mean Y:0.9670909 (14.827db)
x264 [info]: PSNR Mean Y:42.850 U:45.660 V:47.826 Avg:43.716 Global:43.214 kb/s:4275.41
x264 [total]: encoded 170952 frames, 4.84 fps, 4275.41 kb/s, duration 9:48:07.55
TIME
------------------------------
Общее время кодирования: 9 hour 48 min 9 sec
Файл получился на: 3635.29 mb
General
Unique ID : 227733458106362592041159376665657639541 (0xAB53DE5E93084659A73991BA81068275)
Complete name : D:\Фильмы\Bad Boys 1995 BDrip -AVC Froloff777.mkv
Format : Matroska
Format version : Version 2
File size : 4.67 GiB
Duration : 1h 58mn
Overall bit rate : 5 622 Kbps
Encoded date : UTC 2015-11-16 13:20:12
Writing application : mkvmerge v7.8.0 ('River Man') 32bit built on Apr 3 2015 12:11:22
Writing library : libebml v1.3.1 + libmatroska v1.4.2
Attachements : cover.jpg
Video
ID : 1
Format : AVC
Format/Info : Advanced Video Codec
Format profile : High@L4.1
Format settings, CABAC : Yes
Format settings, ReFrames : 11 frames
Codec ID : V_MPEG4/ISO/AVC
Duration : 1h 58mn
Bit rate : 4 166 Kbps
Width : 1 040 pixels
Height : 562 pixels
Display aspect ratio : 1.85:1
Frame rate mode : Constant
Frame rate : 23.976 fps
Color space : YUV
Chroma subsampling : 4:2:0
Bit depth : 8 bits
Scan type : Progressive
Bits/(Pixel*Frame) : 0.297
Stream size : 3.46 GiB (74%)
Title : Bad Boys
Writing library : x264 core 146 r2538kMod 121396c
Encoding settings : cabac=1 / ref=11 / deblock=1:-3:-3 / analyse=0x3:0x113 / me=umh / subme=11 / psy=1 / fade_compensate=0.00 / psy_rd=0.97:0.07 / mixed_ref=1 / me_range=32 / chroma_me=1 / trellis=2 / 8x8dct=1 / cqm=0 / deadzone=21,11 / fast_pskip=0 / chroma_qp_offset=0 / threads=6 / lookahead_threads=1 / sliced_threads=0 / nr=0 / decimate=1 / interlaced=0 / bluray_compat=0 / constrained_intra=0 / fgo=0 / bframes=11 / b_pyramid=2 / b_adapt=2 / b_bias=0 / direct=1 / weightb=1 / open_gop=0 / weightp=2 / keyint=250 / keyint_min=23 / scenecut=40 / intra_refresh=0 / rc_lookahead=60 / rc=crf / mbtree=0 / crf=19.7000 / qcomp=0.63 / qpmin=0 / qpmax=69 / qpstep=4 / vbv_maxrate=62500 / vbv_bufsize=50000 / crf_max=0.0 / nal_hrd=none / filler=0 / ip_ratio=1.40 / pb_ratio=1.25 / aq=3:1.00
Language : English
Default : Yes
Forced : No
Audio #1
ID : 2
Format : AC-3
Format/Info : Audio Coding 3
Mode extension : CM (complete main)
Format settings, Endianness : Big
Codec ID : A_AC3
Duration : 1h 58mn
Bit rate mode : Constant
Bit rate : 448 Kbps
Channel(s) : 6 channels
Channel positions : Front: L C R, Side: L R, LFE
Sampling rate : 48.0 KHz
Compression mode : Lossy
Delay relative to video : 24ms
Stream size : 381 MiB (8%)
Title : Dub
Language : Russian
Default : Yes
Forced : No
Audio #2
ID : 3
Format : AC-3
Format/Info : Audio Coding 3
Mode extension : CM (complete main)
Format settings, Endianness : Big
Codec ID : A_AC3
Duration : 1h 58mn
Bit rate mode : Constant
Bit rate : 448 Kbps
Channel(s) : 6 channels
Channel positions : Front: L C R, Side: L R, LFE
Sampling rate : 48.0 KHz
Compression mode : Lossy
Delay relative to video : 24ms
Stream size : 381 MiB (8%)
Title : AVO Гаврилов
Language : Russian
Default : No
Forced : No
Audio #3
ID : 4
Format : AC-3
Format/Info : Audio Coding 3
Mode extension : CM (complete main)
Format settings, Endianness : Big
Codec ID : A_AC3
Duration : 1h 58mn
Bit rate mode : Constant
Bit rate : 448 Kbps
Channel(s) : 6 channels
Channel positions : Front: L C R, Side: L R, LFE
Sampling rate : 48.0 KHz
Compression mode : Lossy
Delay relative to video : 24ms
Stream size : 381 MiB (8%)
Language : English
Default : No
Forced : No
Text #1
ID : 5
Format : UTF-8
Codec ID : S_TEXT/UTF8
Codec ID/Info : UTF-8 Plain Text
Language : Russian
Default : No
Forced : No
Text #2
ID : 6
Format : UTF-8
Codec ID : S_TEXT/UTF8
Codec ID/Info : UTF-8 Plain Text
Language : English
Default : No
Forced : No
Menu
00:00:00.000 : en:Start
00:06:37.105 : en:Heroin Robbery
00:15:29.303 : en:Peeking & Entering
00:20:50.875 : en:Rich Cop, Poor Cop
00:29:11.416 : en:Eddie's Surprise Party
00:35:19.993 : en:Julie's Escape
00:42:19.787 : en:Two Conversations
00:50:59.056 : en:At Lois'
00:59:15.719 : en:Julie Asks for Mike
01:04:30.867 : en:In Julie's Apartment
01:13:50.801 : en:Making Their Getaway
01:19:42.486 : en:Mike's Place
01:27:59.524 : en:Real Bad Headache
01:33:25.725 : en:Problems in the Lab
01:41:20.616 : en:Julie Meets "Marcus"
01:48:48.689 : en:In the Men's Room

Сравнение с исходником



Скриншоты

To download the content you need:
1. Download and install torrent client [for Windows] or for mobile system
2. Click on [Download]
Attention.
If the test YOU are NOT a ROBOT - does not work, then You are using an outdated browser.
Install the current browser and click on [Download]

Do not work with Yandex browser. Uploading files to them is erroneous.
Security: torrent client is allowed by Kaspersky.

[en.asmlocator.ru].t4576.torrent 
Torrent: Registered [ 2015-12-01 13:55 ] · 66A20E8A1C713128C32FD5CA0AF4214B99C72D93

Download .torrent

Download

24 KB

Status: checked
Completed: 0 times
Size: 4.67 GB
terms.php
[Profile] [PM]
Display posts:    
Reply to topic

Current time is: 10-Apr 10:07

All times are UTC ± 0



You cannot post new topics in this forum
You cannot reply to topics in this forum
You cannot edit your posts in this forum
You cannot delete your posts in this forum
You cannot vote in polls in this forum
You cannot attach files in this forum
You can download files in this forum
Верим фактам, а не вранью Путина! Факт, что Правительство ведёт Россию к истреблению.
Так как численность населения падает, даже не смотря на приток эмигрантов!
Русская нация вымирает и вырождается, смешиваясь с эмигрантами!
Факт, что военных и граждан предприятий заставляют голосовать за партию Единая Россия и Путина
ПОД СТРАХОМ УВОЛЬНЕНИЯ!
Нам не нужно Правительство, блокирующее личную жизнь, интернет, нарушающее сохранность данных.
Все эти действия финансируются за счёт народа!