Восходящее солнце / Rising Sun (Филип Кауфман / Philip Kaufman) [1993, США, триллер, детектив, BDRip] MVO (Лазер Видео) + DVO (Премьер Видео фильм)

Reply to topic
DL-List and Torrent activity
Size:  2.13 GB   |    Registered:  4 years 4 months   |    Completed:  0 times

Seeder not seen: 1 year 1 month

 
   
 
 
Author Message

star21 ®

Gender: Female

Longevity: 4 years 4 months

Posts: 551945

Location: Екатеринбург

Post 01-Dec-2015 13:59

[Quote]

Восходящее солнце / Rising Sun
Страна: США
Жанр: триллер, детектив
Год выпуска: 1993
Продолжительность: 02:09:25
Перевод 1: Профессиональный (многоголосый закадровый) Лазер Видео
Перевод 2: Профессиональный (двухголосый закадровый) Премьер Видео фильм
Cубтитры: нет
Оригинальная аудиодорожка: нет
Режиссер: Филип Кауфман / Philip Kaufman
В ролях: Шон Коннери, Уэсли Снайпс, Харви Кейтель, Кэри-Хироюки Тагава, Кевин Андерсон, Мако, Рэй Уайз, Стэн Эги, Стэн Шоу, Тиа Каррере
Описание: В зале заседаний совета директоров крупной японской корпорации найдена задушенная проститутка. Расследование этого убийства поручается детективу со знанием японской культуры и Лос-Анджелесскому офицеру.
Впоследствии становится ясно, что мёртвая девушка только верхушка айсберга хитросплетённых интриг и жестоких войн корпораций. Чтобы распутать эту головоломку, они окунаются в тайный мир новейших технологий, древних традиций и мнимой преданности.
Доп. информация:
Видеоряд взят из этой раздачи , за которую благодарим slavikevro.
За звуковые дорожки с лицензионных VHS большое спасибо denis_mgn_1987.
За синхронизацию дорожек огромная благодарность porhaleks.
Сэмпл: https://www.sendspace.com/file/zndwno
Качество видео: BDRip
Формат видео: AVI
Видео: 704x384, 23.976 fps, MPEG-4 Visual, 1953 Kbps, XviD 57
Аудио 1: 48 KHz, AC3, 2 ch, 192 Kbps - MVO (Лазер видео)
Аудио 2: 48 KHz, AC3, 2 ch, 192 Kbps - DVO (Премьер)

MediaInfo

General
Complete name : C:\Users\Восходящее солнце (Лазер + Премьер).avi
Format : AVI
Format/Info : Audio Video Interleave
Format profile : OpenDML
File size : 2.13 GiB
Duration : 2h 9mn
Overall bit rate : 2 355 Kbps
Movie name : Rising Sun (1993) BDRip
Writing application : VirtualDubMod 1.5.10.2 (build 2540/release)
Writing library : VirtualDubMod build 2540/release
Video
ID : 0
Format : MPEG-4 Visual
Format profile : Advanced Simple@L5
Format settings, BVOP : 1
Format settings, QPel : No
Format settings, GMC : No warppoints
Format settings, Matrix : Custom
Codec ID : XVID
Codec ID/Hint : XviD
Duration : 2h 9mn
Bit rate : 1 953 Kbps
Width : 704 pixels
Height : 384 pixels
Display aspect ratio : 1.85:1
Frame rate : 23.976 fps
Color space : YUV
Chroma subsampling : 4:2:0
Bit depth : 8 bits
Scan type : Progressive
Compression mode : Lossy
Bits/(Pixel*Frame) : 0.301
Stream size : 1.77 GiB (83%)
Writing library : XviD 57
Audio #1
ID : 1
Format : AC-3
Format/Info : Audio Coding 3
Mode extension : CM (complete main)
Format settings, Endianness : Big
Codec ID : 2000
Duration : 2h 9mn
Bit rate mode : Constant
Bit rate : 192 Kbps
Channel(s) : 2 channels
Channel positions : Front: L R
Sampling rate : 48.0 KHz
Bit depth : 16 bits
Compression mode : Lossy
Stream size : 178 MiB (8%)
Alignment : Split accross interleaves
Interleave, duration : 42 ms (1.00 video frame)
Interleave, preload duration : 500 ms
Audio #2
ID : 2
Format : AC-3
Format/Info : Audio Coding 3
Mode extension : CM (complete main)
Format settings, Endianness : Big
Codec ID : 2000
Duration : 2h 9mn
Bit rate mode : Constant
Bit rate : 192 Kbps
Channel(s) : 2 channels
Channel positions : Front: L R
Sampling rate : 48.0 KHz
Bit depth : 16 bits
Compression mode : Lossy
Stream size : 178 MiB (8%)
Alignment : Split accross interleaves
Interleave, duration : 42 ms (1.00 video frame)
Interleave, preload duration : 500 ms

Скриншоты

To download the content you need:
1. Download and install torrent client [for Windows] or for mobile system
2. Click on [Download]
Attention.
If the test YOU are NOT a ROBOT - does not work, then You are using an outdated browser.
Install the current browser and click on [Download]

Do not work with Yandex browser. Uploading files to them is erroneous.
Security: torrent client is allowed by Kaspersky.

[en.asmlocator.ru].t4573.torrent 
Torrent: Registered [ 2015-12-01 13:55 ] · AC90882F9E618B21C3D58021067AD0DCA62FC200

Download .torrent

Download

11 KB

Status: checked
Completed: 0 times
Size: 2.13 GB
terms.php
[Profile] [PM]
Display posts:    
Reply to topic

Current time is: 03-Apr 04:31

All times are UTC ± 0



You cannot post new topics in this forum
You cannot reply to topics in this forum
You cannot edit your posts in this forum
You cannot delete your posts in this forum
You cannot vote in polls in this forum
You cannot attach files in this forum
You can download files in this forum
Верим фактам, а не вранью Путина! Факт, что Правительство ведёт Россию к истреблению.
Так как численность населения падает, даже не смотря на приток эмигрантов!
Русская нация вымирает и вырождается, смешиваясь с эмигрантами!
Факт, что военных и граждан предприятий заставляют голосовать за партию Единая Россия и Путина
ПОД СТРАХОМ УВОЛЬНЕНИЯ!
Нам не нужно Правительство, блокирующее личную жизнь, интернет, нарушающее сохранность данных.
Все эти действия финансируются за счёт народа!