Всё круто / Сердце пламенный мотор / Running Cool (Беверли Себастиан / Beverly Sebastian) [1993, США, Боевик, DVDRip] AVO А. Дольский

Reply to topic
DL-List and Torrent activity
Size:  1.45 GB   |    Registered:  4 years 3 months   |    Completed:  0 times

Seeder not seen: Never

 
   
 
 
Author Message

star21 ®

Gender: Female

Longevity: 4 years 4 months

Posts: 551945

Location: Екатеринбург

Post 01-Dec-2015 13:59

[Quote]

Всё круто / Сердце пламенный мотор / Running Cool
Страна: США
Жанр: Боевик
Год выпуска: 1993
Продолжительность: 1:46:15
Перевод: Авторский (одноголосый закадровый) А. Дольский
Cубтитры: нет
Режиссер: Беверли Себастиан / Beverly Sebastian
В ролях: Эндрю Дивофф , Трэйси Себастьян , Диди Пфайфер , Пол Глисон , Арлен Дин Снайдер , Бабба Бэйкер , Джеймс Гэммон , Б.Дж. Дэвис , Арни Кокс , Кэролин Гендрон ,
Описание: Байкер по кличке Боун, вместе со своим другом Медведем отправляется в маленький городок Южной Калифорнии, чтобы помочь своему давнему другу по кличке «железная задница», у которого начались проблемы с местными бизнесменами. Дело в том, что уже престарелый байкер живет в очень живописном месте, где ещё сохранилась нетронутая природа, а местный бизнесмен по фамилии Блю пытается прибрать к рукам все эти территории. С его подачи из этих мест уже уехало много народу, но старый байкер решил не сдаваться и отстоять свое прав жить там, где хочет. Тогда Блю и его люди решают прибегнуть к незаконным методам решения своей проблемы…
Доп. информация: Звук синхронизирован из раздачи omenmeister
Сэмпл: https://www.sendspace.com/file/hhi7zy
Качество видео: DVDRip
Формат видео: AVI
Видео: XviD MPEG-4 , 640x480 (1.33:1) , 23.976 fps , 1 756 Kbps
Аудио: AC3 , 48 kHz , 192.00 kbps avg , 2/0 (L,R) ch

MediaInfo

Complete name Всё круто 1993.avi
Format : AVI
Format/Info : Audio Video Interleave
File size : 1.45 GiB
Duration : 1h 46mn
Overall bit rate : 1 957 Kbps
Writing application : VirtualDubMod 1.5.10.3 | www.virtualdub-fr.org || (build 2550/release)
Writing library : VirtualDub build 35491/release
Video
ID : 0
Format : MPEG-4 Visual
Format profile : Advanced Simple@L5
Format settings, BVOP : 1
Format settings, QPel : No
Format settings, GMC : No warppoints
Format settings, Matrix : Default (MPEG)
Codec ID : XVID
Codec ID/Hint : XviD
Duration : 1h 46mn
Bit rate : 1 756 Kbps
Width : 640 pixels
Height : 480 pixels
Display aspect ratio : 4:3
Frame rate : 23.976 fps
Color space : YUV
Chroma subsampling : 4:2:0
Bit depth : 8 bits
Scan type : Progressive
Compression mode : Lossy
Bits/(Pixel*Frame) : 0.238
Stream size : 1.30 GiB (90%)
Writing library : XviD 1.2.1 (UTC 2008-12-04)
Audio
ID : 1
Format : AC-3
Format/Info : Audio Coding 3
Mode extension : CM (complete main)
Format settings, Endianness : Big
Codec ID : 2000
Duration : 1h 46mn
Bit rate mode : Constant
Bit rate : 192 Kbps
Channel(s) : 2 channels
Channel positions : Front: L R
Sampling rate : 48.0 KHz
Compression mode : Lossy
Stream size : 146 MiB (10%)
Alignment : Aligned on interleaves
Interleave, duration : 42 ms (1.00 video frame)
Interleave, preload duratio : 512 ms

To download the content you need:
1. Download and install torrent client [for Windows] or for mobile system
2. Click on [Download]
Attention.
If the test YOU are NOT a ROBOT - does not work, then You are using an outdated browser.
Install the current browser and click on [Download]

Do not work with Yandex browser. Uploading files to them is erroneous.
Security: torrent client is allowed by Kaspersky.

[en.asmlocator.ru].t4569.torrent 
Torrent: Registered [ 2015-12-01 13:55 ] · DBB00B5FF30A87C47AE0017833F5ADEEDB40A948

Download .torrent

Download

15 KB

Status: checked
Completed: 0 times
Size: 1.45 GB
terms.php
[Profile] [PM]
Display posts:    
Reply to topic

Current time is: 31-Mar 15:53

All times are UTC ± 0



You cannot post new topics in this forum
You cannot reply to topics in this forum
You cannot edit your posts in this forum
You cannot delete your posts in this forum
You cannot vote in polls in this forum
You cannot attach files in this forum
You can download files in this forum
Верим фактам, а не вранью Путина! Факт, что Правительство ведёт Россию к истреблению.
Так как численность населения падает, даже не смотря на приток эмигрантов!
Русская нация вымирает и вырождается, смешиваясь с эмигрантами!
Факт, что военных и граждан предприятий заставляют голосовать за партию Единая Россия и Путина
ПОД СТРАХОМ УВОЛЬНЕНИЯ!
Нам не нужно Правительство, блокирующее личную жизнь, интернет, нарушающее сохранность данных.
Все эти действия финансируются за счёт народа!