Двухсотлетний человек / Bicentennial Man (Крис Коламбус / Chris Columbus) [1999, США, фэнтези, мелодрама, WEB-DLRip] AVO (Сонькин, Живов) + Sub Eng + Original Eng

Reply to topic
DL-List and Torrent activity
Size:  2.01 GB   |    Registered:  4 years 4 months   |    Completed:  0 times

Seeder not seen: Never

 
   
 
 
Author Message

star21 ®

Gender: Female

Longevity: 4 years 4 months

Posts: 551945

Location: Екатеринбург

Post 01-Dec-2015 13:59

[Quote]

Двухсотлетний человек / Bicentennial Man
Страна: США
Жанр: фэнтэзи, мелодрама
Год выпуска: 1999
Продолжительность: 02:11:49
Перевод: Авторский (одноголосый закадровый) Владимира Сонькина, Юрия Живова
Cубтитры: английские
Оригинальная аудиодорожка: английский
Режиссер: Крис Коламбус / Chris Columbus
В ролях: Робин Уильямс /Robin Williams/, Оливер Платт /Oliver Platt/, Джордж Д. Уоллес /George D. Wallace/, Кирстен Уоррен /Kiersten Warren/, Джон Майкл Хиггинс /John Michael Higgins/, Холли Кэйт Айзенберг /Hallie Kate Eisenberg/, Брэдли Уитфорд /Bradley Whitford/, Уэнди Крюсон /Wendy Crewson/, Сэм Нилл /Sam Neill/, Стивен Рут /Stephen Root/, Эмбет Дэвидц /Embeth Davidtz/, Линн Тигпен /Lynne Thigpen/
Описание: Фильм поставлен по рассказу Айзека Азимова и роману "Позитронный человек" Айзека Азимова и Роберта Силверберга.
Семья Мартинов покупает домашнего робота (Робин Уильямс) для выполнения всяких работ по дому, но робот, оказалось, - не совсем обычный механизм: он наделен индивидуальностью и способностью эмоционально реагировать на происходящее. Обнаруживает все это отец (Сэм Нилл). Младшая дочь, которую робот Эндрю звал маленькой Мисс, дала подержать роботу свою любимую стеклянную лошадку, а Эндрю ее случайно разбил. Девочка расстроилась. Робот, изучив литературу, сам сделал из дерева замечательную лошадку по собственному дизайну. Папа заметил эту особенность робота и позволил ему учиться, работать и развиваться. Девочка, состарившись, умерла, но до конца жизни сжимал в руке лошадку. Робот Эндрю не старел. Умерли мистер Мартин, его жена, дочь. Эндрю продолжал совершенствоваться и захотел, чтобы люди официально признали его человеком, так как он любил Порши, правнучку мистера Мартина. Внешне и внутренне он был человеком, но обладал позитронным мозгом, не мог дать потомство (секс был возможен) и был бессмертен. Люди ходили с новыми внутренними органами, которые он изобрел для себя. Жизнь людей удлинилась, но они почему-то не хотели жить вечно. Они не признали Эндрю человеком, так как тот был бессмертен. Эндрю знал, что такое любовь, ревность, но ему очень хотелось, чтоб его все-таки признали человеком. Тогда он сделал себя смертным и даже умер на несколько минут раньше своей жены, так и не услышав слов о том, что он признан человеком, а его брак с Порши - действительным.
Фильм хороший. Это красивая, добрая сказка, особенно интересная для детей. (Иванов М.)
Доп. информация: переводы от , исходная картинка от - спасибо!! им
Качество видео: WEB-DLRip >>Сэмпл
Формат видео: AVI
Видео: 720x400 (1.80:1), 23.976 fps, XviD build 50 ~1341 kbps avg, 0.19 bit/pixel
Аудио 1: 48 kHz, AC3 Dolby Digital, 2/0 (L,R) ch, ~224 kbps - Сонькин
Аудио 2: 48 kHz, AC3 Dolby Digital, 2/0 (L,R) ch, ~224 kbps - Живов(отдельно)
Аудио 3: 48 kHz, AC3, 3/2 (L,C,R,l,r) + LFE ch, ~384 kbps - english(отдельно)

MediaInfo

Формат : AVI
Формат/Информация : Audio Video Interleave
Размер файла : 1,45 Гбайт
Продолжительность : 2 ч. 11 м.
Общий поток : 1574 Кбит/сек
Название фильма : Bicentennial Man (1999)
Программа кодирования : VirtualDubMod 1.5.10.3 | www.virtualdub-fr.org || (build 2550/release)
Библиотека кодирования : VirtualDubMod build 2550/release
Правообладатель : karlll
Видео
Идентификатор : 0
Формат : MPEG-4 Visual
Профиль формата : Advanced Simple@L5
Параметр BVOP формата : 2
Параметр QPel формата : Нет
Параметр GMC формата : Без точки перехода
Параметр матрицы формата : Default (MPEG)
Идентификатор кодека : XVID
Идентификатор кодека/Подсказка : XviD
Продолжительность : 2 ч. 11 м.
Битрейт : 1342 Кбит/сек
Ширина : 720 пикселей
Высота : 400 пикселей
Соотношение сторон : 16:9
Частота кадров : 23,976 кадра/сек
Цветовое пространство : YUV
Субдискретизация насыщенности : 4:2:0
Битовая глубина : 8 бит
Тип развёртки : Прогрессивная
Метод сжатия : С потерями
Бит/(Пиксели*Кадры) : 0.194
Размер потока : 1,24 Гбайт (85%)
Библиотека кодирования : XviD 1.2.1 (UTC 2008-12-04)
Аудио
Идентификатор : 1
Формат : AC-3
Формат/Информация : Audio Coding 3
Расширение режима : CM (complete main)
Параметр Endianness формата : Big
Идентификатор кодека : 2000
Продолжительность : 2 ч. 11 м.
Вид битрейта : Постоянный
Битрейт : 224 Кбит/сек
Каналы : 2 канала
Расположение каналов : Front: L R
Частота : 48,0 КГц
Битовая глубина : 16 бит
Метод сжатия : С потерями
Размер потока : 210 Мбайт (14%)
Выравнивание : Разделение по промежуткам
Продолжительность промежутка : 42 мс. (1,00 видеокадр)
Время предзагрузки промежутка : 500 мс.
Заголовок : Sonkin

Скриншоты

To download the content you need:
1. Download and install torrent client [for Windows] or for mobile system
2. Click on [Download]
Attention.
If the test YOU are NOT a ROBOT - does not work, then You are using an outdated browser.
Install the current browser and click on [Download]

Do not work with Yandex browser. Uploading files to them is erroneous.
Security: torrent client is allowed by Kaspersky.

[en.asmlocator.ru].t4568.torrent 
Torrent: Registered [ 2015-12-01 13:55 ] · 8D98847E5DBBFCE1DE5A21D72F8868B83B035CE0

Download .torrent

Download

11 KB

Status: checked
Completed: 0 times
Size: 2.01 GB
terms.php
[Profile] [PM]
Display posts:    
Reply to topic

Current time is: 04-Apr 15:01

All times are UTC ± 0



You cannot post new topics in this forum
You cannot reply to topics in this forum
You cannot edit your posts in this forum
You cannot delete your posts in this forum
You cannot vote in polls in this forum
You cannot attach files in this forum
You can download files in this forum
Верим фактам, а не вранью Путина! Факт, что Правительство ведёт Россию к истреблению.
Так как численность населения падает, даже не смотря на приток эмигрантов!
Русская нация вымирает и вырождается, смешиваясь с эмигрантами!
Факт, что военных и граждан предприятий заставляют голосовать за партию Единая Россия и Путина
ПОД СТРАХОМ УВОЛЬНЕНИЯ!
Нам не нужно Правительство, блокирующее личную жизнь, интернет, нарушающее сохранность данных.
Все эти действия финансируются за счёт народа!