Ангелочек / Ангельские глазки / Ангел-убийца / Angel Eyes (Гэри Грейвер / Gary Graver) [1993, США, триллер, эротика, криминал, VHSRip] AVO (Андрей Гаврилов)

Reply to topic
DL-List and Torrent activity
Size:  1.37 GB   |    Registered:  4 years 4 months   |    Completed:  1 time

Seeder not seen: 56 minutes

 
   
 
 
Author Message

star21 ®

Gender: Female

Longevity: 4 years 5 months

Posts: 551945

Location: Екатеринбург

Post 01-Dec-2015 13:59

[Quote]

Ангелочек / Ангельские глазки / Ангел-убийца / Angel Eyes
«Она без ума от мужчин»
Страна: США
Жанр: триллер, криминал + большая каплля эротики
Год выпуска: 1993
Продолжительность: 01:25:42
Перевод: Авторский (одноголосый закадровый) Андрей Гаврилов
Cубтитры: нет
Режиссер: Гэри Грейвер / Gary Graver
В ролях: Эрик Эстрада, Джон Филлип Ло, Моник Габриэль, Рэйвен, Джон Коулмэн, Хоук Хауэлл, Ричард Харрисон, Сюзанн Аджер, Мартин Николас, Сэйззи Ли Кэлхун
Описание: Аннотация от alenavova
Стивен и Мишель занимались любовью. Страстно, долго, с выдумкой и фантазией. Они занимались любовью так, как это делают только последний раз в жизни. И в предвкушении близкого оргазма они, конечно, не слышали звук подъехавшего к дому такси, а потому неожиданно раздавшийся звонок в дверь, разумеется, обломал им весь кайф. "Папа, это же я - Эйнджел, твой Ангелочек..." - сказала милая девушка, стоявшая на пороге. Стивен, конечно, объяснил своей возлюбленной Мишель, что у него нет никакой дочки Эйнджел, но выгнать девушку в неизвестность ночи?.. - это было выше его сил. И мозгов у Стивена тоже не хватило - чтобы понять: Эйнджел, может быть, и Ангелочек, но только если Ангел Смерти... Интрига с двумя параллельно развивающимися сюжетными линиями и эротическими сценами, которые лишь тормозят действие, но ради которых, собственно, и снимался этот удивительный фильм.
Доп. информация: Оцифровка VHS (личный архив) и получение VHSRip alenavova
Эксклюзив для rutracker.org. При размещении данного релиза на других сайтах ссылка на автора alenavova обязательна.

Релиз
Сэмпл: https://yadi.sk/i/b1Phtai0kdwME
Качество видео: VHSRip
Формат видео: AVI
Видео: 704x528 (1.33:1), 25 fps, XviD build 73 ~2081 kbps avg, 0.22 bit/pixel
Аудио: 48 kHz, AC3 Dolby Digital, 2/0 (L,R) ch, ~192 kbps

MediaInfo

Ангелочек - Angel Eyes (by alenavova).avi
Format : AVI
Format/Info : Audio Video Interleave
File size : 1.37 GiB
Duration : 1h 25mn
Overall bit rate : 2 284 Kbps
Movie name : Ангелочек - Angel Eyes (by alenavova)
Director : by alenavova
Writing application : VirtualDubMod 1.5.10.3 | www.virtualdub-fr.org || (build 2550/release)
Copyright : Edich2
Comment : RuTracker.org
Video
ID : 0
Format : MPEG-4 Visual
Format profile : Advanced Simple@L5
Format settings, BVOP : 1
Format settings, QPel : No
Format settings, GMC : No warppoints
Format settings, Matrix : Default (H.263)
Codec ID : XVID
Codec ID/Hint : XviD
Duration : 1h 25mn
Bit rate : 2 082 Kbps
Width : 704 pixels
Height : 528 pixels
Display aspect ratio : 4:3
Frame rate : 25.000 fps
Color space : YUV
Chroma subsampling : 4:2:0
Bit depth : 8 bits
Scan type : Progressive
Compression mode : Lossy
Bits/(Pixel*Frame) : 0.224
Stream size : 1.25 GiB (91%)
Writing library : XviD 73
Audio
ID : 1
Format : AC-3
Format/Info : Audio Coding 3
Mode extension : CM (complete main)
Format settings, Endianness : Big
Codec ID : 2000
Duration : 1h 25mn
Bit rate mode : Constant
Bit rate : 192 Kbps
Channel(s) : 2 channels
Channel positions : Front: L R
Sampling rate : 48.0 KHz
Bit depth : 16 bits
Compression mode : Lossy
Stream size : 118 MiB (8%)
Alignment : Split accross interleaves
Interleave, duration : 40 ms (1.00 video frame)
Interleave, preload duration : 500 ms

Скриншоты для всех


Скриншоты без цензуры 16+

To download the content you need:
1. Download and install torrent client [for Windows] or for mobile system
2. Click on [Download]
Attention.
If the test YOU are NOT a ROBOT - does not work, then You are using an outdated browser.
Install the current browser and click on [Download]

Do not work with Yandex browser. Uploading files to them is erroneous.
Security: torrent client is allowed by Kaspersky.

[en.asmlocator.ru].t4567.torrent 
Torrent: Registered [ 2015-12-01 13:55 ] · 5086AC0B9855DC83E6CDFF01E351C997FBD438C0

Download .torrent

Download

14 KB

Status: checked
Completed: 1 times
Size: 1.37 GB
terms.php
[Profile] [PM]
Display posts:    
Reply to topic

Current time is: 10-Apr 09:46

All times are UTC ± 0



You cannot post new topics in this forum
You cannot reply to topics in this forum
You cannot edit your posts in this forum
You cannot delete your posts in this forum
You cannot vote in polls in this forum
You cannot attach files in this forum
You can download files in this forum
Верим фактам, а не вранью Путина! Факт, что Правительство ведёт Россию к истреблению.
Так как численность населения падает, даже не смотря на приток эмигрантов!
Русская нация вымирает и вырождается, смешиваясь с эмигрантами!
Факт, что военных и граждан предприятий заставляют голосовать за партию Единая Россия и Путина
ПОД СТРАХОМ УВОЛЬНЕНИЯ!
Нам не нужно Правительство, блокирующее личную жизнь, интернет, нарушающее сохранность данных.
Все эти действия финансируются за счёт народа!