Усопший / Похороны Джека / Passed Away (Чарли Питерс / Charlie Peters) [1992, США, комедия, ирландский юмор, VHSRip] [FullScreen] AVO (Василий Горчаков)

Reply to topic
DL-List and Torrent activity
Size:  1.46 GB   |    Registered:  4 years 3 months   |    Completed:  0 times

Seeder not seen: Never

 
   
 
 
Author Message

star21 ®

Gender: Female

Longevity: 4 years 4 months

Posts: 551945

Location: Екатеринбург

Post 01-Dec-2015 13:59

[Quote]

Усопший / Похороны Джека / Passed Away
"Папа в конце концов сделал одну вещь, которая могла бы собрать его семью вместе"
[FullScreen]
Страна: США
Жанр: комедия, ирландский юмор
Год выпуска: 1992
Продолжительность: 01:36:42
Перевод: Авторский (одноголосый закадровый) Василий Горчаков
Cубтитры: нет
Режиссер: Чарли Питерс / Charlie Peters
В ролях: Боб Хоскинс, Джек Уорден, Уильям Питерсен, Диана Беллами, Дон Брокетт, Хелен Ллойд Брид, Патриция О`Коннелл, Сэлли Грейси, Рут Джэрослоу, Элис Эйснер, Морин Стэплтон, Памела Рид, Тим Карри (Bob Hoskins, Jack Warden, William Petersen, Diana Bellamy, Don Brockett, Helen Lloyd Breed, Patricia O'Connell, Sally Gracie, Ruth Jaroslow, Alice Eisner, Maureen Stapleton, Pamela Reed, Tim Curry)
Описание: Аннотация от alenavova
Заокеанские знатоки кино утверждают, что англичанину Бобу Хоскинсу никогда не удастся убедить зрителей, что его персонажи могут быть американцами. Им, конечно, в Штатах видней, но главный герой психологическо-"черной" комедии "Усопший" Джонни Скэнлэн вполне интернационален. Суть в том, что он - сын своего отца. И этого достаточно... Джек Скэнлэн, преклонных лет "железный старикан", скончался на рабочем месте. Ему хватило одного лишь всеобщего "Surpri-i-ise!" ("Сюрпри-и-из!"), которое ему приготовили коллеги по возвращении на работу после долгого отсутствия. Но проблемы возникли не на службе, а в связи с тем, что Джек умер, оставив более чем многочисленную семью - полтора десятка самых близких родственников (дети, внуки и т.д.). Несколько дней из жизни клана Скэнлэнов (с момента получения известия о смерти Джека до его похорон) и проходят перед нашими глазами.
Доп. информация: Оцифровка VHS (личный архив) и получение VHSRip alenavova
Эксклюзив для rutracker.org. При размещении данного релиза на других сайтах ссылка на автора alenavova обязательна.

Релиз
Сэмпл: https://yadi.sk/i/KB7u7UzBkf3bp
Качество видео: VHSRip
Формат видео: AVI
Видео: 704x528 (1.33:1), 25 fps, XviD build 73 ~1964 kbps avg, 0.21 bit/pixel
Аудио: 48 kHz, AC3 Dolby Digital, 2/0 (L,R) ch, ~192 kbps

MediaInfo

Усопший - Passed Away (by alenavova).avi
Format : AVI
Format/Info : Audio Video Interleave
File size : 1.46 GiB
Duration : 1h 36mn
Overall bit rate : 2 166 Kbps
Movie name : Усопший - Passed Away (by alenavova)
Director : by alenavova
Writing application : VirtualDubMod 1.5.10.3 | www.virtualdub-fr.org || (build 2550/release)
Copyright : Edich2
Comment : RuTracker.org
Video
ID : 0
Format : MPEG-4 Visual
Format profile : Advanced Simple@L5
Format settings, BVOP : 1
Format settings, QPel : No
Format settings, GMC : No warppoints
Format settings, Matrix : Default (H.263)
Codec ID : XVID
Codec ID/Hint : XviD
Duration : 1h 36mn
Bit rate : 1 965 Kbps
Width : 704 pixels
Height : 528 pixels
Display aspect ratio : 4:3
Frame rate : 25.000 fps
Color space : YUV
Chroma subsampling : 4:2:0
Bit depth : 8 bits
Scan type : Progressive
Compression mode : Lossy
Bits/(Pixel*Frame) : 0.211
Stream size : 1.33 GiB (91%)
Writing library : XviD 73
Audio
ID : 1
Format : AC-3
Format/Info : Audio Coding 3
Mode extension : CM (complete main)
Format settings, Endianness : Big
Codec ID : 2000
Duration : 1h 36mn
Bit rate mode : Constant
Bit rate : 192 Kbps
Channel(s) : 2 channels
Channel positions : Front: L R
Sampling rate : 48.0 KHz
Bit depth : 16 bits
Compression mode : Lossy
Stream size : 133 MiB (9%)
Alignment : Split accross interleaves
Interleave, duration : 40 ms (1.00 video frame)
Interleave, preload duration : 500 ms

Скриншоты


To download the content you need:
1. Download and install torrent client [for Windows] or for mobile system
2. Click on [Download]
Attention.
If the test YOU are NOT a ROBOT - does not work, then You are using an outdated browser.
Install the current browser and click on [Download]

Do not work with Yandex browser. Uploading files to them is erroneous.
Security: torrent client is allowed by Kaspersky.

[en.asmlocator.ru].t4563.torrent 
Torrent: Registered [ 2015-12-01 13:55 ] · F3698DA6DE75491A766F303806D1D2F533C759DF

Download .torrent

Download

15 KB

Status: checked
Completed: 0 times
Size: 1.46 GB
terms.php
[Profile] [PM]
Display posts:    
Reply to topic

Current time is: 31-Mar 19:55

All times are UTC ± 0



You cannot post new topics in this forum
You cannot reply to topics in this forum
You cannot edit your posts in this forum
You cannot delete your posts in this forum
You cannot vote in polls in this forum
You cannot attach files in this forum
You can download files in this forum
Верим фактам, а не вранью Путина! Факт, что Правительство ведёт Россию к истреблению.
Так как численность населения падает, даже не смотря на приток эмигрантов!
Русская нация вымирает и вырождается, смешиваясь с эмигрантами!
Факт, что военных и граждан предприятий заставляют голосовать за партию Единая Россия и Путина
ПОД СТРАХОМ УВОЛЬНЕНИЯ!
Нам не нужно Правительство, блокирующее личную жизнь, интернет, нарушающее сохранность данных.
Все эти действия финансируются за счёт народа!