Охота на зайцев / Hasenjagd (Андреас Грубер / Andreas Gruber) [1994, Австрия, Германия, Драма, военный, DVDRip]VO(Radamant) Sub Rus + Original Ger

Reply to topic
DL-List and Torrent activity
Size:  1.48 GB   |    Registered:  4 years 3 months   |    Completed:  7 times

Seeder not seen: 5 months 11 days

 
   
 
 
Author Message

star21 ®

Gender: Female

Longevity: 4 years 4 months

Posts: 551945

Location: Екатеринбург

Post 01-Dec-2015 13:58

[Quote]

Охота на зайцев / Hasenjagd
Страна: Австрия, Германия
Жанр: Драма, военный
Год выпуска: 1994
Продолжительность: 01:42:22
Перевод: Одноголосый закадровый Radamant
Cубтитры: Русские. Английские
Оригинальная аудиодорожка: Немецкий
Режиссер: Андреас Грубер / Andreas Gruber
В ролях: Elfriede Irrall, Райнер Эггер, Оливер Броумис, Мераб Нинидзе, Фолькмар Кляйнерт, Kirsten Nehberg, Рюдигер Фоглер, Франц Фрошауэр, Кристоф Кюнцлер, Тьерри Ван Вервеке
Описание: Начало 1945 года. После отказа выйти на поле боя на стороне немецко-фашистских войск пятьсот русских военнопленных дожидаются казни в концлагере близ Маутхаузена. Однажды ночью они решаются на побег. Большинство тут же погибает, но несколько человек успевают укрыться в близлежащих деревнях. Тогда охрана концлагеря призывает местное население открыть собственную «охоту на зайцев», то есть на спрятавшихся беглых пленников.
Доп. информация: Данный рип взят с KG. Как вчера и обещал раздаю более качественный рип. Субтитры к фильму взяты во временной раздаче здесь За них большое спасибо говорим tv0r0g
PS. Сюжет основан на так называемой Мюльфиртельской охоте на зайцев.

ТОРЕНТ ПЕРЕЗАЛИТ
добавлена Русская звуковая дорожка Спасибо Radamant
Сэмпл: http://multi-up.com/1076601
Качество видео: DVDRip
Формат видео: AVI
Видео: XVID, 672х432, 25.000 fps, 1 725 Kbps
Аудио 1: Русский (AC3 192 kbps 2 ch)
Аудио 2: Немецкий (AC3 160, 2 ch)
Формат субтитров: softsub (SRT)

MediaInfo

General
Complete name : C:\Documents and Settings\admin\Мои документы\Downloads\Hasenjagd 1994\Hasenjagd.avi
Format : AVI
Format/Info : Audio Video Interleave
File size : 1.48 GiB
Duration : 1h 41mn
Overall bit rate : 2 091 Kbps
Writing application : VirtualDubMod 1.5.4.1 (build 2066/release)
Writing library : VirtualDubMod build 2066/release
Video
ID : 0
Format : MPEG-4 Visual
Format profile : Advanced Simple@L5
Format settings, BVOP : 1
Format settings, QPel : No
Format settings, GMC : No warppoints
Format settings, Matrix : Custom
Codec ID : XVID
Codec ID/Hint : XviD
Duration : 1h 41mn
Bit rate : 1 725 Kbps
Width : 672 pixels
Height : 432 pixels
Display aspect ratio : 16:10
Frame rate : 25.000 fps
Color space : YUV
Chroma subsampling : 4:2:0
Bit depth : 8 bits
Scan type : Progressive
Compression mode : Lossy
Bits/(Pixel*Frame) : 0.238
Stream size : 1.22 GiB (82%)
Writing library : XviD 64
Audio #1
ID : 1
Format : AC-3
Format/Info : Audio Coding 3
Mode extension : CM (complete main)
Format settings, Endianness : Big
Codec ID : 2000
Duration : 1h 41mn
Bit rate mode : Constant
Bit rate : 192 Kbps
Channel(s) : 2 channels
Channel positions : Front: L R
Sampling rate : 48.0 KHz
Bit depth : 16 bits
Compression mode : Lossy
Stream size : 139 MiB (9%)
Alignment : Split accross interleaves
Interleave, duration : 40 ms (1.00 video frame)
Interleave, preload duration : 500 ms
Audio #2
ID : 2
Format : AC-3
Format/Info : Audio Coding 3
Mode extension : CM (complete main)
Format settings, Endianness : Big
Codec ID : 2000
Duration : 1h 41mn
Bit rate mode : Constant
Bit rate : 160 Kbps
Channel(s) : 2 channels
Channel positions : Front: L R
Sampling rate : 48.0 KHz
Bit depth : 16 bits
Compression mode : Lossy
Stream size : 116 MiB (8%)
Alignment : Split accross interleaves
Interleave, duration : 40 ms (1.00 video frame)
Interleave, preload duration : 500 ms

Скриншот c названием фильма

Скриншоты

Пример субтитров

1
00:00:06,599 --> 00:00:11,299
Охота на зайцев
2
00:01:03,800 --> 00:01:12,400
История этого фильма основана на реальных событиях
так называемой Мюльфиртельской охоты на зайцев.
3
00:01:12,401 --> 00:01:19,101
Январь 1945, концлагерь Маутхаузен
4
00:01:21,402 --> 00:01:30,702
В бараке №20 500 офицеров Красной армии были обречены
на смерть. Военнопленные были отправлены в Маутхаузен,
5
00:01:30,703 --> 00:01:35,103
потому что они отказались воевать за Германию.
6
00:01:42,704 --> 00:01:45,804
Подъём! Марш!
7
00:04:33,607 --> 00:04:35,507
Гусиным шагом!
8
00:09:03,509 --> 00:09:06,409
Ничего хорошего не жди.
9
00:09:09,410 --> 00:09:12,110
Кто знает, может быть, это окончание войны.
10
00:09:41,811 --> 00:09:44,411
- Что такое, ты готов идти?
- Да, да, я иду.
11
00:09:52,212 --> 00:09:59,812
Перекличка Фольксштурма [ополчения]. В этот раз тебе не увильнуть. До сих пор за тебя другие рисковали своей шеей.
12
00:10:00,813 --> 00:10:05,113
Ты можешь идти, я сам
найду дорогу.
13
00:10:06,414 --> 00:10:08,614
Мария ещё спит?
14
00:10:15,215 --> 00:10:18,015
- Что происходит?
- Говорят, что стреляли.
15
00:10:21,416 --> 00:10:23,716
Война закончилась?
16
00:10:24,317 --> 00:10:26,217
Они стреляли как сумасшедние!
17
00:10:44,518 --> 00:10:49,218
Сегодня, 500 опасных преступников
сбежали из лагеря Маутхаузен.
18
00:10:49,919 --> 00:10:54,319
Они двинулись на север,
то есть в этом направлении.
19
00:10:54,320 --> 00:11:03,620
Все мужчины Фольксштурма, военнослужащие в отпуске, пожарные, полиция и Гитлерюгенд
20
00:11:03,621 --> 00:11:08,321
должны принять участие в поисковой операции.
Не берите их в плен ни при каких обстоятельствах.

To download the content you need:
1. Download and install torrent client [for Windows] or for mobile system
2. Click on [Download]
Attention.
If the test YOU are NOT a ROBOT - does not work, then You are using an outdated browser.
Install the current browser and click on [Download]

Do not work with Yandex browser. Uploading files to them is erroneous.
Security: torrent client is allowed by Kaspersky.

[en.asmlocator.ru].t4560.torrent 
Torrent: Registered [ 2015-12-01 13:55 ] · 974FB375C3FB058152BA5562920EB0F24E8E39F9

Download .torrent

Download

15 KB

Status: checked
Completed: 7 times
Size: 1.48 GB
terms.php
[Profile] [PM]
Display posts:    
Reply to topic

Current time is: 31-Mar 19:21

All times are UTC ± 0



You cannot post new topics in this forum
You cannot reply to topics in this forum
You cannot edit your posts in this forum
You cannot delete your posts in this forum
You cannot vote in polls in this forum
You cannot attach files in this forum
You can download files in this forum
Верим фактам, а не вранью Путина! Факт, что Правительство ведёт Россию к истреблению.
Так как численность населения падает, даже не смотря на приток эмигрантов!
Русская нация вымирает и вырождается, смешиваясь с эмигрантами!
Факт, что военных и граждан предприятий заставляют голосовать за партию Единая Россия и Путина
ПОД СТРАХОМ УВОЛЬНЕНИЯ!
Нам не нужно Правительство, блокирующее личную жизнь, интернет, нарушающее сохранность данных.
Все эти действия финансируются за счёт народа!