Английский пациент / The English Patient (Энтони Мингелла / Anthony Minghella) [1996, США, Великобритания, драма, мелодрама, военный, HDRip] AVO (Живов)

Reply to topic
DL-List and Torrent activity
Size:  2.18 GB   |    Registered:  4 years 4 months   |    Completed:  0 times

Seeder not seen: Never

 
   
 
 
Author Message

star21 ®

Gender: Female

Longevity: 4 years 5 months

Posts: 551945

Location: Екатеринбург

Post 01-Dec-2015 13:58

[Quote]

Английский пациент / The English Patient Страна: США, Великобритания
Жанр: драма, мелодрама, военный
Год выпуска: 1996
Продолжительность: 02:41:44
Перевод: Авторский (одноголосый закадровый) Юрий Живов
Cубтитры: нет
Режиссер: Энтони Мингелла / Anthony Minghella
В ролях: Ральф Файнс, Жюльет Бинош, Уиллем Дэфо, Кристин Скотт Томас, Нэвин Эндрюс, Колин Ферт, Юрген Прохнов, Джулиан Уэдхем
Описание: Вторая мировая война близится к концу. Молодая канадская медсестра ухаживает на заброшенной вилле за своим «английским пациентом», который получил страшные ожоги во время авиакатастрофы в пустыне Сахара.
Медленно угасая, он воскрешает в памяти свой страстный роман с замужней женщиной, сметенный ураганом войны и банальными предрассудками, что в конце концов и привело к трагической развязке.
[imdb]http://www.imdb.com/title/tt0116209[/imdb]
Качество видео:
Формат видео: AVI
Видео кодек: XviD
Аудио кодек: AC3
Видео: 704x384 (1.83:1), 23.976 fps, XviD build 65 ~1478 kbps avg, 0.23 bit/pixel
Аудио: 48 kHz, AC3 Dolby Digital, 3/2 (L,C,R,l,r) + LFE ch, ~448 kbps

Доп.инфо

за видеоряд спасибо teko
за перевод Живова спасибо пользователям форума HDTracker

MediaInfo

Complete name : Английский пациент.avi
Format : AVI
Format/Info : Audio Video Interleave
Format profile : OpenDML
File size : 2.18 GiB
Duration : 2h 41mn
Overall bit rate : 1 934 Kbps
Writing application : VirtualDubMod 1.5.10.3 | www.virtualdub-fr.org || (build 2550/release)
Writing library : VirtualDubMod build 2550/release
Video
ID : 0
Format : MPEG-4 Visual
Format profile : Advanced Simple@L5
Format settings, BVOP : 2
Format settings, QPel : No
Format settings, GMC : No warppoints
Format settings, Matrix : Custom
Codec ID : XVID
Codec ID/Hint : XviD
Duration : 2h 41mn
Bit rate : 1 474 Kbps
Width : 704 pixels
Height : 384 pixels
Display aspect ratio : 1.85:1
Frame rate : 23.976 fps
Color space : YUV
Chroma subsampling : 4:2:0
Bit depth : 8 bits
Scan type : Progressive
Compression mode : Lossy
Bits/(Pixel*Frame) : 0.227
Stream size : 1.66 GiB (76%)
Writing library : XviD 65
Audio
ID : 1
Format : AC-3
Format/Info : Audio Coding 3
Mode extension : CM (complete main)
Format settings, Endianness : Big
Codec ID : 2000
Duration : 2h 41mn
Bit rate mode : Constant
Bit rate : 448 Kbps
Channel(s) : 6 channels
Channel positions : Front: L C R, Side: L R, LFE
Sampling rate : 48.0 KHz
Compression mode : Lossy
Stream size : 518 MiB (23%)
Alignment : Split accross interleaves
Interleave, duration : 42 ms (1.00 video frame)
Interleave, preload duratio : 500 ms

Скриншоты

To download the content you need:
1. Download and install torrent client [for Windows] or for mobile system
2. Click on [Download]
Attention.
If the test YOU are NOT a ROBOT - does not work, then You are using an outdated browser.
Install the current browser and click on [Download]

Do not work with Yandex browser. Uploading files to them is erroneous.
Security: torrent client is allowed by Kaspersky.

[en.asmlocator.ru].t4559.torrent 
Torrent: Registered [ 2015-12-01 13:55 ] · 820E7663097AFCED4E1666492097B3D35FA62FA0

Download .torrent

Download

11 KB

Status: checked
Completed: 0 times
Size: 2.18 GB
terms.php
[Profile] [PM]
Display posts:    
Reply to topic

Current time is: 08-Apr 01:56

All times are UTC ± 0



You cannot post new topics in this forum
You cannot reply to topics in this forum
You cannot edit your posts in this forum
You cannot delete your posts in this forum
You cannot vote in polls in this forum
You cannot attach files in this forum
You can download files in this forum
Верим фактам, а не вранью Путина! Факт, что Правительство ведёт Россию к истреблению.
Так как численность населения падает, даже не смотря на приток эмигрантов!
Русская нация вымирает и вырождается, смешиваясь с эмигрантами!
Факт, что военных и граждан предприятий заставляют голосовать за партию Единая Россия и Путина
ПОД СТРАХОМ УВОЛЬНЕНИЯ!
Нам не нужно Правительство, блокирующее личную жизнь, интернет, нарушающее сохранность данных.
Все эти действия финансируются за счёт народа!