На пределе / Overdrive (Лев Л. Спайро / Lev L. Spiro) [1998, США, боевик, DVDRip] DVO (EA) + Original Eng

Reply to topic
DL-List and Torrent activity
Size:  1.22 GB   |    Registered:  4 years 4 months   |    Completed:  0 times

Seeder not seen: 1 year 6 months

 
   
 
 
Author Message

star21 ®

Gender: Female

Longevity: 4 years 4 months

Posts: 551945

Location: Екатеринбург

Post 01-Dec-2015 13:58

[Quote]

На пределе / Overdrive
Страна: США
Жанр: боевик
Год выпуска: 1998
Продолжительность: 01:21:26
Перевод: Профессиональный (двухголосый закадровый) EA
Cубтитры: нет
Оригинальная аудиодорожка: английский
Режиссер: Лев Л. Спайро / Lev L. Spiro
В ролях: Стив Гуттенберг /Steve Guttenberg/, Роберт Вагнер /Robert Wagner/, Билл Болландер /Bill Bollander/, Роджер Холстон /Rodger Halston/, Джулиэн Нил /Julian Neil/, Марк Фелан /Mark Phelan/, Франц Тернер /Frantz Turner/, Кристина Солис /Christina Solis/, Ричмонд Аркетт /Richmond Arquette/, Алекс Хайд-Уайт /Alex Hyde-White/, Стивен Медоуз /Stephen Meadows/, Кэйла Добкин /Kaela Dobkin/
Описание: Секретный агент Уэнди Шихан должна была записать на видеопленку свое свидание с иностранным дипломатом. Но неожиданно это задание стало самым опасным в ее карьере. На глазах Уэнди дипломата зверски убивает ее босс Крэй.
Уэнди предлагает убийце выкупить единственную улику — видеокассету за 5 миллионов долларов. Крэй, согласившись на словах на условия Уэнди, решает ее убить, и нанимает киллеров. Но на свое счастье Уэнди знакомится с чемпионом автогонок Мэттом Стрикером.
Мэтт соглашается помочь Уэнди, совершенно не подозревая, во что он ввязывается. Когда его машину обстреливают, Мэтт понимает, что оказался втянут в безумно опасную игру, но отступать уже поздно…
Доп. информация: Благодарность:
Fikaloid - за дорожку AVO
xelon2006 - за синхрон дорожки.

Релиз
Сэмпл: https://yadi.sk/i/YYIAa05XkiNxS
Качество видео: DVDRip
Формат видео: AVI
Видео: 512x384 (1.33:1), 25 fps, XviD build 50 ~1743 kbps avg, 0.35 bit/pixel
Аудио: 48 kHz, AC3 Dolby Digital, 2/0 (L,R) ch, ~192 kbps
Аудио 2: 48 kHz, AC3 Dolby Digital, 2/0 (L,R) ch, ~192 kbps

MediaInfo

На пределе - Overdrive [by Edich2].avi
Format : AVI
Format/Info : Audio Video Interleave
File size : 1.22 GiB
Duration : 1h 21mn
Overall bit rate : 2 143 Kbps
Movie name : На пределе - Overdrive [by Edich2]
Director : by Edich2
Writing application : VirtualDubMod 1.5.10.2 (build 2540/release)
Comment : RuTracker.org
Video
ID : 0
Format : MPEG-4 Visual
Format profile : Advanced Simple@L5
Format settings, BVOP : 1
Format settings, QPel : No
Format settings, GMC : No warppoints
Format settings, Matrix : Default (MPEG)
Codec ID : XVID
Codec ID/Hint : XviD
Duration : 1h 21mn
Bit rate : 1 744 Kbps
Width : 512 pixels
Height : 384 pixels
Display aspect ratio : 4:3
Frame rate : 25.000 fps
Color space : YUV
Chroma subsampling : 4:2:0
Bit depth : 8 bits
Scan type : Progressive
Compression mode : Lossy
Bits/(Pixel*Frame) : 0.355
Stream size : 1 016 MiB (81%)
Writing library : XviD 1.2.1 (UTC 2008-12-04)
Audio #1
ID : 1
Format : AC-3
Format/Info : Audio Coding 3
Mode extension : CM (complete main)
Format settings, Endianness : Big
Codec ID : 2000
Duration : 1h 21mn
Bit rate mode : Constant
Bit rate : 192 Kbps
Channel(s) : 2 channels
Channel positions : Front: L R
Sampling rate : 48.0 KHz
Bit depth : 16 bits
Compression mode : Lossy
Stream size : 112 MiB (9%)
Alignment : Split accross interleaves
Interleave, duration : 40 ms (1.00 video frame)
Interleave, preload duration : 500 ms
Audio #2
ID : 2
Format : AC-3
Format/Info : Audio Coding 3
Mode extension : CM (complete main)
Format settings, Endianness : Big
Codec ID : 2000
Duration : 1h 21mn
Bit rate mode : Constant
Bit rate : 192 Kbps
Channel(s) : 2 channels
Channel positions : Front: L R
Sampling rate : 48.0 KHz
Bit depth : 16 bits
Compression mode : Lossy
Stream size : 112 MiB (9%)
Alignment : Split accross interleaves
Interleave, duration : 40 ms (1.00 video frame)
Interleave, preload duration : 500 ms

Скриншоты



To download the content you need:
1. Download and install torrent client [for Windows] or for mobile system
2. Click on [Download]
Attention.
If the test YOU are NOT a ROBOT - does not work, then You are using an outdated browser.
Install the current browser and click on [Download]

Do not work with Yandex browser. Uploading files to them is erroneous.
Security: torrent client is allowed by Kaspersky.

[en.asmlocator.ru].t4557.torrent 
Torrent: Registered [ 2015-12-01 13:55 ] · F9070DB538B349381B399F71D0D3F396FE8D3885

Download .torrent

Download

13 KB

Status: checked
Completed: 0 times
Size: 1.22 GB
terms.php
[Profile] [PM]
Display posts:    
Reply to topic

Current time is: 03-Apr 05:05

All times are UTC ± 0



You cannot post new topics in this forum
You cannot reply to topics in this forum
You cannot edit your posts in this forum
You cannot delete your posts in this forum
You cannot vote in polls in this forum
You cannot attach files in this forum
You can download files in this forum
Верим фактам, а не вранью Путина! Факт, что Правительство ведёт Россию к истреблению.
Так как численность населения падает, даже не смотря на приток эмигрантов!
Русская нация вымирает и вырождается, смешиваясь с эмигрантами!
Факт, что военных и граждан предприятий заставляют голосовать за партию Единая Россия и Путина
ПОД СТРАХОМ УВОЛЬНЕНИЯ!
Нам не нужно Правительство, блокирующее личную жизнь, интернет, нарушающее сохранность данных.
Все эти действия финансируются за счёт народа!