Опасный пациент / Вызов на дом / Квартира 512 / De Flat / House call / Appartement 512 (Бен Вербонг / Ben Verbong) [1994, Нидерланды, триллер, детектив, мелодрама, DVDRip] MVO

Reply to topic
DL-List and Torrent activity
Size:  1.46 GB   |    Registered:  4 years 4 months   |    Completed:  0 times

Seeder not seen: 1 year 7 months

 
   
 
 
Author Message

star21 ®

Gender: Female

Longevity: 4 years 5 months

Posts: 551945

Location: Екатеринбург

Post 01-Dec-2015 13:58

[Quote]

Опасный пациент / Вызов на дом / Квартира 512 / De Flat / House call / Appartement 512
Страна: Нидерланды
Жанр: триллер, детектив, мелодрама
Год выпуска: 1994
Продолжительность: 01:40:50
Перевод: Профессиональный (многоголосый закадровый)
Cубтитры: нет
Режиссер: Бен Вербонг / Ben Verbong
В ролях: Рене Саутендейк (Roos Hartman), Виктор Лёв (Eric Coenen), Ганс Хес (Jacques Posthuma), Мирьям Де Руйи (Lidy van Oosterom), Лесли Де Грютер (Hennie van Oosterom), Хюйб Ройманс (Erwin Nijkamp), Жак Коммандёр (Charles Uffingh), Мод Хемпель (Nel van Lier), Феликс Бёрлсон (Mr. Witbaard), Питер Смитс (Officer), Джейми Сибел (Davy)
Описание: Разведясь с мужем, обаятельная голландка Рус Хартман переезжает с малолетним сыном на новое место жительства. Заняв служебную квартиру (апартаменты так называемого домашнего врача), доктор Хартман приступает к выполнению своих профессиональных обязанностей, наслаждаясь тихим, размеренным и спокойным существованием.
Но всё встает с ног на голову, когда в соседнем здании происходит шокирующее убийство. Кто-то жестоко расправляется с женщиной – миссис ван Лир, приглядывавшей в качестве приходящей няни за сыном Рус. Мертвое окровавленное тело бедняжки обнаруживают сама доктор и сосед покойницы – новый пациент доктора Хартман, импозантный красавец по имени Эрик, ставший недавно вдовцом.
Рус и Эрик явно симпатизируют друг другу. И вскоре невинное рядовое общение между молодыми людьми перерастает в страстную романтическую связь.
Тем временем, некто неизвестный тайно следит за Рус, стараясь постоянно контролировать каждый ее шаг. А полиция начинает подозревать Эрика в убийстве миссис ван Лир. Более того, у стражей порядка теперь возникают сильные сомнения и относительно не криминальности смерти жены Эрика. Ведь в последние минуты жизни рядом с девушкой находилась именно миссис ван Лир. А такие совпадения случайными не бывают.
Все обстоятельства вроде бы свидетельствуют против Эрика. Но Рус отказывается верить в то, что её возлюбленный, во-первых, причастен к убою несчастной женщины, а, во-вторых, мог совершить хитроумное убийство собственной жены.
И потому доктор Хартман затевает частное расследование.
Что же удастся нарыть дилетанту? Виновен ли Эрик? Преступник он или жертва ошибки следствия? И если он не злодей, то кто же тогда настоящий убийца? (© italy777)
Доп. информация: За исходник спасибо italy777
Релиз
Сэмпл: https://yadi.sk/i/uSGu4Hk-kjnWU
Качество видео: DVDRip
Формат видео: AVI
Видео: 704x528 (1.33:1), 25 fps, XviD build 50 ~1865 kbps avg, 0.20 bit/pixel
Аудио: 48 kHz, AC3 Dolby Digital, 2/0 (L,R) ch, ~192 kbps

MediaInfo

Опасный пациент - De Flat [by Edich2].avi
Format : AVI
Format/Info : Audio Video Interleave
File size : 1.46 GiB
Duration : 1h 40mn
Overall bit rate : 2 068 Kbps
Movie name : Опасный пациент - De Flat [by Edich2]
Director : by Edich2
Writing application : VirtualDubMod 1.5.10.3 | www.virtualdub-fr.org || (build 2550/release)
Comment : RuTracker.org
Video
ID : 0
Format : MPEG-4 Visual
Format profile : Advanced Simple@L5
Format settings, BVOP : 1
Format settings, QPel : No
Format settings, GMC : No warppoints
Format settings, Matrix : Default (MPEG)
Codec ID : XVID
Codec ID/Hint : XviD
Duration : 1h 40mn
Bit rate : 1 866 Kbps
Width : 704 pixels
Height : 528 pixels
Display aspect ratio : 4:3
Frame rate : 25.000 fps
Color space : YUV
Chroma subsampling : 4:2:0
Bit depth : 8 bits
Scan type : Progressive
Compression mode : Lossy
Bits/(Pixel*Frame) : 0.201
Stream size : 1.31 GiB (90%)
Writing library : XviD 1.2.1 (UTC 2008-12-04)
Audio
ID : 1
Format : AC-3
Format/Info : Audio Coding 3
Mode extension : CM (complete main)
Format settings, Endianness : Big
Codec ID : 2000
Duration : 1h 40mn
Bit rate mode : Constant
Bit rate : 192 Kbps
Channel(s) : 2 channels
Channel positions : Front: L R
Sampling rate : 48.0 KHz
Bit depth : 16 bits
Compression mode : Lossy
Delay relative to video : 500ms
Stream size : 138 MiB (9%)
Alignment : Split accross interleaves
Interleave, duration : 40 ms (1.00 video frame)
Interleave, preload duration : 500 ms

Скриншоты

To download the content you need:
1. Download and install torrent client [for Windows] or for mobile system
2. Click on [Download]
Attention.
If the test YOU are NOT a ROBOT - does not work, then You are using an outdated browser.
Install the current browser and click on [Download]

Do not work with Yandex browser. Uploading files to them is erroneous.
Security: torrent client is allowed by Kaspersky.

[en.asmlocator.ru].t4555.torrent 
Torrent: Registered [ 2015-12-01 13:55 ] · E87AD476E29D903C0F0BDA0D66F8AECF20C4B1DB

Download .torrent

Download

15 KB

Status: checked
Completed: 0 times
Size: 1.46 GB
terms.php
[Profile] [PM]
Display posts:    
Reply to topic

Current time is: 10-Apr 08:41

All times are UTC ± 0



You cannot post new topics in this forum
You cannot reply to topics in this forum
You cannot edit your posts in this forum
You cannot delete your posts in this forum
You cannot vote in polls in this forum
You cannot attach files in this forum
You can download files in this forum
Верим фактам, а не вранью Путина! Факт, что Правительство ведёт Россию к истреблению.
Так как численность населения падает, даже не смотря на приток эмигрантов!
Русская нация вымирает и вырождается, смешиваясь с эмигрантами!
Факт, что военных и граждан предприятий заставляют голосовать за партию Единая Россия и Путина
ПОД СТРАХОМ УВОЛЬНЕНИЯ!
Нам не нужно Правительство, блокирующее личную жизнь, интернет, нарушающее сохранность данных.
Все эти действия финансируются за счёт народа!