Двойная угроза / Страсти-мордасти во второй степени / Double, Double, Toil and Trouble (Стюарт Марголин / Stuart Margolin) [1993, США, комедия, VHSRip] AVO (Сергей Визгунов)

Reply to topic
DL-List and Torrent activity
Size:  1.37 GB   |    Registered:  4 years 4 months   |    Completed:  5 times

Seeder not seen: 5 months 21 day

 
   
 
 
Author Message

star21 ®

Gender: Female

Longevity: 4 years 5 months

Posts: 551945

Location: Екатеринбург

Post 01-Dec-2015 13:58

[Quote]

Двойная угроза / Страсти-мордасти во второй степени / Double, Double, Toil and Trouble
Страна: США
Студия: Walt Disney
Жанр: комедия
Год выпуска: 1993
Продолжительность: 01:33:31
Перевод: Авторский (одноголосый закадровый) Сергей Визгунов
Cубтитры: нет
Режиссер: Стюарт Марголин / Stuart Margolin
В ролях: Эшли Олсен, Мэри-Кэйт Олсен, Клорис Личман, Фил Фондакаро, Эрик МакКормак, Келли Фокс, Уэйн Робсон, Мэттью Уокер
Описание: Семья Фармеров находится в больших долгах. Они могут потерять свой дом. Юные близняшки Келли и Линн решают не допустить этого. Они обнаруживают, что кто-то очень нехороший ответственнен за все проблемы их семьи. И это их тетя Агата. Благодаря лунному камню, который она нашла много лет назад, тетя Агата стала ведьмой. Девочки решили во что бы то ни стало отобрать у нее волшебный камень.
Доп. информация: Оцифровка VHS (личный архив) и получение VHSRip alenavova
Эксклюзив для rutracker.org. При размещении данного релиза на других сайтах ссылка на автора alenavova обязательна.

Релиз
Сэмпл: https://yadi.sk/i/tJs30kL0kmDhn
Качество видео: VHSRip
Формат видео: AVI
Видео: 704x528 (1.33:1), 25 fps, XviD build 73 ~1890 kbps avg, 0.20 bit/pixel
Аудио: 48 kHz, AC3 Dolby Digital, 2/0 (L,R) ch, ~192 kbps

MediaInfo

Двойная угроза - Двойная угроза (by alenavova).avi
Format : AVI
Format/Info : Audio Video Interleave
File size : 1.37 GiB
Duration : 1h 33mn
Overall bit rate : 2 092 Kbps
Movie name : Двойная угроза - Двойная угроза (by alenavova)
Director : by alenavova
Writing application : VirtualDubMod 1.5.10.3 | www.virtualdub-fr.org || (build 2550/release)
Copyright : Edich2
Comment : RuTracker.org
Video
ID : 0
Format : MPEG-4 Visual
Format profile : Advanced Simple@L5
Format settings, BVOP : 1
Format settings, QPel : No
Format settings, GMC : No warppoints
Format settings, Matrix : Default (H.263)
Codec ID : XVID
Codec ID/Hint : XviD
Duration : 1h 33mn
Bit rate : 1 890 Kbps
Width : 704 pixels
Height : 528 pixels
Display aspect ratio : 4:3
Frame rate : 25.000 fps
Color space : YUV
Chroma subsampling : 4:2:0
Bit depth : 8 bits
Scan type : Progressive
Compression mode : Lossy
Bits/(Pixel*Frame) : 0.203
Stream size : 1.23 GiB (90%)
Writing library : XviD 73
Audio
ID : 1
Format : AC-3
Format/Info : Audio Coding 3
Mode extension : CM (complete main)
Format settings, Endianness : Big
Codec ID : 2000
Duration : 1h 33mn
Bit rate mode : Constant
Bit rate : 192 Kbps
Channel(s) : 2 channels
Channel positions : Front: L R
Sampling rate : 48.0 KHz
Bit depth : 16 bits
Compression mode : Lossy
Stream size : 128 MiB (9%)
Alignment : Split accross interleaves
Interleave, duration : 40 ms (1.00 video frame)
Interleave, preload duration : 500 ms

Скриншоты


To download the content you need:
1. Download and install torrent client [for Windows] or for mobile system
2. Click on [Download]
Attention.
If the test YOU are NOT a ROBOT - does not work, then You are using an outdated browser.
Install the current browser and click on [Download]

Do not work with Yandex browser. Uploading files to them is erroneous.
Security: torrent client is allowed by Kaspersky.

[en.asmlocator.ru].t4554.torrent 
Torrent: Registered [ 2015-12-01 13:55 ] · E56FA13A50804834815AE93F3386199289756CFB

Download .torrent

Download

14 KB

Status: checked
Completed: 5 times
Size: 1.37 GB
terms.php
[Profile] [PM]
Display posts:    
Reply to topic

Current time is: 10-Apr 09:19

All times are UTC ± 0



You cannot post new topics in this forum
You cannot reply to topics in this forum
You cannot edit your posts in this forum
You cannot delete your posts in this forum
You cannot vote in polls in this forum
You cannot attach files in this forum
You can download files in this forum
Верим фактам, а не вранью Путина! Факт, что Правительство ведёт Россию к истреблению.
Так как численность населения падает, даже не смотря на приток эмигрантов!
Русская нация вымирает и вырождается, смешиваясь с эмигрантами!
Факт, что военных и граждан предприятий заставляют голосовать за партию Единая Россия и Путина
ПОД СТРАХОМ УВОЛЬНЕНИЯ!
Нам не нужно Правительство, блокирующее личную жизнь, интернет, нарушающее сохранность данных.
Все эти действия финансируются за счёт народа!