Когда опасность проводит тебя до дома / When Danger Follows You Home (Дэвид Пекинпа / David Peckinpah) [1997, Канада, США, Триллер, Детектив, VHSRip] AVO (Кашкин)

Reply to topic
DL-List and Torrent activity
Size:  1.37 GB   |    Registered:  4 years 4 months   |    Completed:  0 times

Seeder not seen: 1 year 1 month

 
   
 
 
Author Message

star21 ®

Gender: Female

Longevity: 4 years 4 months

Posts: 551945

Location: Екатеринбург

Post 01-Dec-2015 13:58

[Quote]

Когда опасность проводит тебя до дома / When Danger Follows You Home
«У неё были благие намерения. Всё что ей было нужно, это хорошее алиби»
Страна: Канада, США
Жанр: Триллер, Детектив
Год выпуска: 1997
Продолжительность: 01:30:59
Перевод: Авторский (одноголосый закадровый) Кашкин
Cубтитры: нет
Режиссер: Дэвид Пекинпа / David Peckinpah
В ролях: ДжоБет Уильямс /JoBeth Williams/, Уильям Расс /William Russ/, Майкл Манассери /Michael Manasseri/, Ванесса Кинг /Vanessa King/, Билл Суитцер /Bill Switzer/, Сьюзан Хоган /Susan Hogan/, Данкан Фрэйзер /Duncan Fraser/, Николас Суровы /Nicolas Surovy/
Описание: Эш Уэрден молодая врач-психиатр получает нового пациента Гогеля юного компьютерного гения арестованного за покушение на чужую собственность.
Когда Энн пытается познакомиться с делом своего подопечного она узнает что файл засекречен ФБР и что само дело неразрывно связано с загадочным жестоким убийством.
Вмешательство Энн приводит к тому что неизвестный киллер начинает охотиться за ней. Энн некуда отступать, она должна бороться не только за свою жизнь, но и за жизнь своего ребенка.
Доп. информация: Спасибо Анна57 - за VHS
Релиз
Сэмпл: https://yadi.sk/i/XIU13MDfkmcdh
Качество видео: VHSRip
Формат видео: AVI
Видео: 640x480 (1.33:1), 25 fps, XviD build 73 ~2012 kbps avg, 0.26 bit/pixel
Аудио: 48 kHz, MPEG Layer 3, 2 ch, ~128.00 kbps avg

MediaInfo

Когда опасность проводит тебя до дома - When Danger Follows You Home [by Edich2].avi
Format : AVI
Format/Info : Audio Video Interleave
File size : 1.37 GiB
Duration : 1h 30mn
Overall bit rate : 2 150 Kbps
Movie name : Когда опасность проводит тебя до дома - When Danger Follows You Home [by Edich2]
Director : by Edich2
Writing application : VirtualDubMod 1.5.10.3 | www.virtualdub-fr.org || (build 2550/release)
Comment : RuTracker.org
Video
ID : 0
Format : MPEG-4 Visual
Format profile : Advanced Simple@L5
Format settings, BVOP : 1
Format settings, QPel : No
Format settings, GMC : No warppoints
Format settings, Matrix : Default (H.263)
Codec ID : XVID
Codec ID/Hint : XviD
Duration : 1h 30mn
Bit rate : 2 013 Kbps
Width : 640 pixels
Height : 480 pixels
Display aspect ratio : 4:3
Frame rate : 25.000 fps
Color space : YUV
Chroma subsampling : 4:2:0
Bit depth : 8 bits
Scan type : Progressive
Compression mode : Lossy
Bits/(Pixel*Frame) : 0.262
Stream size : 1.28 GiB (94%)
Writing library : XviD 73
Audio
ID : 1
Format : MPEG Audio
Format version : Version 1
Format profile : Layer 3
Codec ID : 55
Codec ID/Hint : MP3
Duration : 1h 30mn
Bit rate mode : Constant
Bit rate : 128 Kbps
Channel(s) : 2 channels
Sampling rate : 48.0 KHz
Compression mode : Lossy
Stream size : 83.3 MiB (6%)
Alignment : Split accross interleaves
Interleave, duration : 40 ms (1.00 video frame)
Interleave, preload duration : 500 ms

To download the content you need:
1. Download and install torrent client [for Windows] or for mobile system
2. Click on [Download]
Attention.
If the test YOU are NOT a ROBOT - does not work, then You are using an outdated browser.
Install the current browser and click on [Download]

Do not work with Yandex browser. Uploading files to them is erroneous.
Security: torrent client is allowed by Kaspersky.

[en.asmlocator.ru].t4550.torrent 
Torrent: Registered [ 2015-12-01 13:55 ] · 47343E354D781142C83762B9F8E1E1E41A9363AE

Download .torrent

Download

14 KB

Status: checked
Completed: 0 times
Size: 1.37 GB
terms.php
[Profile] [PM]
Display posts:    
Reply to topic

Current time is: 03-Apr 04:20

All times are UTC ± 0



You cannot post new topics in this forum
You cannot reply to topics in this forum
You cannot edit your posts in this forum
You cannot delete your posts in this forum
You cannot vote in polls in this forum
You cannot attach files in this forum
You can download files in this forum
Верим фактам, а не вранью Путина! Факт, что Правительство ведёт Россию к истреблению.
Так как численность населения падает, даже не смотря на приток эмигрантов!
Русская нация вымирает и вырождается, смешиваясь с эмигрантами!
Факт, что военных и граждан предприятий заставляют голосовать за партию Единая Россия и Путина
ПОД СТРАХОМ УВОЛЬНЕНИЯ!
Нам не нужно Правительство, блокирующее личную жизнь, интернет, нарушающее сохранность данных.
Все эти действия финансируются за счёт народа!