Святые из Бундока / Святые из трущоб / The Boondock Saints (Трой Даффи / Troy Duffy) [1999, США, Канада, Комедийный боевик, VHSRip] [FullScreen] MVO (Инис)

Reply to topic
DL-List and Torrent activity
Size:  1.46 GB   |    Registered:  4 years 3 months   |    Completed:  0 times

Seeder not seen: Never

 
   
 
 
Author Message

star21 ®

Gender: Female

Longevity: 4 years 4 months

Posts: 551945

Location: Екатеринбург

Post 01-Dec-2015 13:58

[Quote]

Святые из Бундока / Святые из трущоб / The Boondock Saints
«Это не мафиозные разборки, это - кара Божья!»
[FullScreen]
Страна: США, Канада
Жанр: Комедийный боевик
Год выпуска: 1999
Продолжительность: 01:43:58
Перевод: Профессиональный (многоголосый закадровый) Инис
Cубтитры: нет
Режиссер: Трой Даффи / Troy Duffy
В ролях: Уиллем Дэфо, Шон Патрик Флэнери, Норман Ридус, Дэвид Делла Рокко, Билли Коннолли, Дэвид Ферри, Брайан Махони, Боб Марли, Ричард Фицпатрик, Уильям Янг, Роберт Пембертон, Билл Крэйг, Дот Джонс, Скотт Гриффит, Лэйтон Моррисон, Джеймс Бинкли, Роберт Итон, Герард Паркес, Элизабет Браун, Джеффри Р. Смит, Джонатан Хиггинс, Лизз Александр, Роберт Б. Кеннеди, Карло Рота, Рон Джереми, Том Барнетт, Лоурен Пич, Джина Сорелл, Джинна Файн, Серджо Ди Зио, Анджело Туччи, Джимми Тингл, Дик Каллахан, Кармен Дистефано, Роберта Анджелика
Описание:
Чего только не бывает на свете! Два обычных ирландских парня, братья Коннор и Мерфи, преспокойно жили и работали в своем родном Бостоне, пока в один прекрасный день на них не снизошло озарение: сам Бог послал их на землю с особой миссией, наделив святой силой, чтобы очистить мир от зла. И братья взялись за дело со всей серьезностью, присущей ирландцам. Вскоре местную мафию охватывает настоящая паника – ведь методы "святых" не отличаются особой гуманностью, зато оказались очень эффективными – кровь полилась рекой! Массовый отстрел мафиози не мог не привлечь внимания ФБР. Спецагент Пол Смекер, ведущий расследование, попадает в непростую ситуацию: служебный долг требует пресечь деятельность "святых братьев", однако в душе он не только сочувствует им, но даже готов присоединиться к исполнителям "священной" миссии...
Доп. информация: Оцифровка лицензионной VHS (личный архив) и получение VHSRip alenavova
Эксклюзив для rutracker.org. При размещении данного релиза на других сайтах ссылка на автора alenavova обязательна.

Релиз
Сэмпл: https://yadi.sk/i/fUCps-_Nkntig
Качество видео: VHSRip
Формат видео: AVI
Видео: 704x528 (1.33:1), 25 fps, XviD build 73 ~1813 kbps avg, 0.20 bit/pixel
Аудио: 48 kHz, AC3 Dolby Digital, 2/0 (L,R) ch, ~192 kbps

MediaInfo

Святые из Бундока - The Boondock Saints (by alenavova).avi
Format : AVI
Format/Info : Audio Video Interleave
File size : 1.46 GiB
Duration : 1h 43mn
Overall bit rate : 2 015 Kbps
Movie name : Святые из Бундока - The Boondock Saints (by alenavova)
Director : by alenavova
Writing application : VirtualDubMod 1.5.10.3 | www.virtualdub-fr.org || (build 2550/release)
Copyright : Edich2
Comment : RuTracker.org
Video
ID : 0
Format : MPEG-4 Visual
Format profile : Advanced Simple@L5
Format settings, BVOP : 1
Format settings, QPel : No
Format settings, GMC : No warppoints
Format settings, Matrix : Default (H.263)
Codec ID : XVID
Codec ID/Hint : XviD
Duration : 1h 43mn
Bit rate : 1 814 Kbps
Width : 704 pixels
Height : 528 pixels
Display aspect ratio : 4:3
Frame rate : 25.000 fps
Color space : YUV
Chroma subsampling : 4:2:0
Bit depth : 8 bits
Scan type : Progressive
Compression mode : Lossy
Bits/(Pixel*Frame) : 0.195
Stream size : 1.32 GiB (90%)
Writing library : XviD 73
Audio
ID : 1
Format : AC-3
Format/Info : Audio Coding 3
Mode extension : CM (complete main)
Format settings, Endianness : Big
Codec ID : 2000
Duration : 1h 43mn
Bit rate mode : Constant
Bit rate : 192 Kbps
Channel(s) : 2 channels
Channel positions : Front: L R
Sampling rate : 48.0 KHz
Bit depth : 16 bits
Compression mode : Lossy
Stream size : 143 MiB (10%)
Alignment : Split accross interleaves
Interleave, duration : 40 ms (1.00 video frame)
Interleave, preload duration : 500 ms

Скриншоты



To download the content you need:
1. Download and install torrent client [for Windows] or for mobile system
2. Click on [Download]
Attention.
If the test YOU are NOT a ROBOT - does not work, then You are using an outdated browser.
Install the current browser and click on [Download]

Do not work with Yandex browser. Uploading files to them is erroneous.
Security: torrent client is allowed by Kaspersky.

[en.asmlocator.ru].t4549.torrent 
Torrent: Registered [ 2015-12-01 13:55 ] · 728D14EF53C57BF3BBAC52A0620A502CFA14988E

Download .torrent

Download

15 KB

Status: checked
Completed: 0 times
Size: 1.46 GB
terms.php
[Profile] [PM]
Display posts:    
Reply to topic

Current time is: 30-Mar 00:31

All times are UTC ± 0



You cannot post new topics in this forum
You cannot reply to topics in this forum
You cannot edit your posts in this forum
You cannot delete your posts in this forum
You cannot vote in polls in this forum
You cannot attach files in this forum
You can download files in this forum
Верим фактам, а не вранью Путина! Факт, что Правительство ведёт Россию к истреблению.
Так как численность населения падает, даже не смотря на приток эмигрантов!
Русская нация вымирает и вырождается, смешиваясь с эмигрантами!
Факт, что военных и граждан предприятий заставляют голосовать за партию Единая Россия и Путина
ПОД СТРАХОМ УВОЛЬНЕНИЯ!
Нам не нужно Правительство, блокирующее личную жизнь, интернет, нарушающее сохранность данных.
Все эти действия финансируются за счёт народа!