Капитан Джек / Captain Jack (Роберт Янг / Robert Young) [1999, Великобритания, Драма, DVDRip] MVO (5 канал)

Reply to topic
DL-List and Torrent activity
Size:  1.45 GB   |    Registered:  4 years 3 months   |    Completed:  0 times

Seeder not seen: Never

 
   
 
 
Author Message

star21 ®

Gender: Female

Longevity: 4 years 4 months

Posts: 551945

Location: Екатеринбург

Post 01-Dec-2015 13:58

[Quote]

Капитан Джек / Captain Jack«A tale so incredible - It might just be true!»- Страна: Великобритания
Жанр: Драма
Год выпуска: 1999
Продолжительность: 01:35:58-Перевод: Профессиональный (многоголосый закадровый) [5 канал (Санкт-Петербург)]
Cубтитры: нет-Режиссер: Роберт Янг / Robert Young-В ролях: Боб Хоскинс, Сэди Фрост, Джемма Джонс, Анна Мэсси, Питер МакДональд, Дэвид Тротон, Морин Липман, Патрик Мэлахайд, Мишель Дотрис, Тревор Бэннистер-Описание: Когда-то давным-давно, в 1791 году, легендарный капитан Скорсби отплыл из Англии в Арктику. И он достиг ее, тем самым, совершив настоящий подвиг. Для современного морского волка Джека — обладателя почти не дырявого корыта — капитан Скорсби всегда был примером для подражания. Капитан Джек решает повторить поход своего кумира, несмотря на то, что суденышко его старовато для таких подвигов. Но капитану подобные мелочи не помеха, как и полное отсутствие команды. Впрочем команду он набирает из старых и не очень знакомых, среди которых: две вечно спорящие друг с другом сестры-пенсионерки; молодой австралиец-путешественник, которому в общем-то без разницы куда плыть или ехать; хронический неудачник, страдающий кризисом среднего возраста…-Sample | [imdb]http://www.imdb.com/title/tt0163006[/imdb] | КиноПоиск-Тип релиза: DVDRip
Формат видео: AVI-Видео: 704x384 (1.83:1), 25 fps, XviD build 50, 1963 kbps avg, 0.29 bit/pixel
Аудио: 48 kHz, AC3 Dolby Digital, 2/0 (L,R) ch, 192.00 kbps avg [Russian_MVO]-Релиз группы:-

Сравнение скриншотов

http://screenshotcomparison.com/comparison/152285
не для поглощения - разное наполнение кадра

MediaInfo

General
Complete name : D:\Мои релизы\Captain Jack_RG_All_Films.avi
Format : AVI
Format/Info : Audio Video Interleave
File size : 1.45 GiB
Duration : 1h 35mn
Overall bit rate : 2 166 Kbps
Writing application : VirtualDubMod 1.6.0.0 SURROUND (build 2560/release)
Writing library : VirtualDubMod build 2560/release
Video
ID : 0
Format : MPEG-4 Visual
Format profile : Advanced Simple@L5
Format settings, BVOP : Yes
Format settings, QPel : No
Format settings, GMC : No warppoints
Format settings, Matrix : Custom
Codec ID : XVID
Codec ID/Hint : XviD
Duration : 1h 35mn
Bit rate : 1 964 Kbps
Width : 704 pixels
Height : 384 pixels
Display aspect ratio : 16:9
Frame rate : 25.000 fps
Color space : YUV
Chroma subsampling : 4:2:0
Bit depth : 8 bits
Scan type : Progressive
Compression mode : Lossy
Bits/(Pixel*Frame) : 0.291
Stream size : 1.32 GiB (91%)
Writing library : XviD 1.2.1 (UTC 2008-12-04)
Audio
ID : 1
Format : AC-3
Format/Info : Audio Coding 3
Mode extension : CM (complete main)
Codec ID : 2000
Duration : 1h 35mn
Bit rate mode : Constant
Bit rate : 192 Kbps
Channel(s) : 2 channels
Channel positions : Front: L R
Sampling rate : 48.0 KHz
Bit depth : 16 bits
Compression mode : Lossy
Stream size : 132 MiB (9%)
Alignment : Split accross interleaves
Interleave, duration : 40 ms (1.00 video frame)
Interleave, preload duration : 500 ms

Скриншоты

To download the content you need:
1. Download and install torrent client [for Windows] or for mobile system
2. Click on [Download]
Attention.
If the test YOU are NOT a ROBOT - does not work, then You are using an outdated browser.
Install the current browser and click on [Download]

Do not work with Yandex browser. Uploading files to them is erroneous.
Security: torrent client is allowed by Kaspersky.

[en.asmlocator.ru].t4547.torrent 
Torrent: Registered [ 2015-12-01 13:55 ] · CF4D8F96D90549904ED60624DB76289361573AE9

Download .torrent

Download

15 KB

Status: checked
Completed: 0 times
Size: 1.45 GB
terms.php
[Profile] [PM]
Display posts:    
Reply to topic

Current time is: 29-Mar 17:15

All times are UTC ± 0



You cannot post new topics in this forum
You cannot reply to topics in this forum
You cannot edit your posts in this forum
You cannot delete your posts in this forum
You cannot vote in polls in this forum
You cannot attach files in this forum
You can download files in this forum
Верим фактам, а не вранью Путина! Факт, что Правительство ведёт Россию к истреблению.
Так как численность населения падает, даже не смотря на приток эмигрантов!
Русская нация вымирает и вырождается, смешиваясь с эмигрантами!
Факт, что военных и граждан предприятий заставляют голосовать за партию Единая Россия и Путина
ПОД СТРАХОМ УВОЛЬНЕНИЯ!
Нам не нужно Правительство, блокирующее личную жизнь, интернет, нарушающее сохранность данных.
Все эти действия финансируются за счёт народа!