Могила вампира / Grave of the Vampire (Джон Хэйес / John Hayes) [1972, США, Ужасы, HDTVRip] DVO (НТВ+)

Reply to topic
DL-List and Torrent activity
Size:  1.48 GB   |    Registered:  4 years 3 months   |    Completed:  0 times

Seeder not seen: Never

 
   
 
 
Author Message

star21 ®

Gender: Female

Longevity: 4 years 4 months

Posts: 551945

Location: Екатеринбург

Post 01-Dec-2015 13:58

[Quote]

Могила вампира / Grave of the Vampire
Страна: США
Жанр: Ужасы
Год выпуска: 1972
Продолжительность: 01:26:51
Перевод: Профессиональный (двухголосый закадровый) НТВ+
Cубтитры: нет
Режиссер: Джон Хэйес / John Hayes
В ролях: Уильям Смит / William Smith, Майкл Пэтаки / Michael Pataki, Лин Петерс / Lyn Peters, Дайэн Холден / Diane Holden, Леукс Дресслер / Lieux Dressler, Эрик Мэйсон / Eric Mason, Джэй Эдлер /Jay Adler, Джэй Скотт / Jay Scott, Вильям Гахл / William Guhl, Маргарет Фэрчайлд / Margaret Fairchild.
Описание: #1. В 1930-х годах некто Калеб Крофт, убийца и насильник, был пойман властями и посажен на электрический стул. Однако через три года он вернулся с того света. Возможно Крофт стал реинкарнацией вампира Кройдена, когда-то терроризировавшего Англию. Подтверждением этого является ребёнок, рождённый изнасилованной им женщиной, который с раннего детства стал предпочитать молоку кровь...
#2. Прямо в самом начале этого фильма вампир насилует девушку на кладбище. Несчастная женщина рожает полувампирчика. Затем фильм становится душераздирающим - она кормит свое дитя собственной кровью. Ребенок вырастает и начинает мстить своему безжалостному папе. (Иванов М.)
Сэмпл: https://yadi.sk/i/ZryoLzlHhFk4F
Доп. информация: За предоставленный рип благодарим Ledy_X
"Спасибы" просьба ПИСАТЬ в теме, тем самым вы продлеваете жизнь раздаче.
Релиз
Качество видео: HDTVRip [Исходник 1080i]
Формат видео: AVI
Видео: 720x400 (1.80:1), 25 fps, XviD build 50 ~2242 kbps avg, 0.31 bit/pixel
Аудио: 48 kHz, AC3 Dolby Digital, 2/0 (L,R) ch, ~192 kbps

MediaInfo

Могила вампира - Grave of the Vampire [Rip by Ledy_X].avi
Format : AVI
Format/Info : Audio Video Interleave
File size : 1.48 GiB
Duration : 1h 26mn
Overall bit rate : 2 444 Kbps
Movie name : Могила вампира - Grave of the Vampire [Rip by Ledy_X]
Director : Rip by Ledy_X
Writing application : VirtualDubMod 1.5.10.2 (build 2540/release)
Copyright : Edich2
Comment : RuTracker.org
Video
ID : 0
Format : MPEG-4 Visual
Format profile : Advanced Simple@L5
Format settings, BVOP : 1
Format settings, QPel : No
Format settings, GMC : No warppoints
Format settings, Matrix : Default (MPEG)
Codec ID : XVID
Codec ID/Hint : XviD
Duration : 1h 26mn
Bit rate : 2 242 Kbps
Width : 720 pixels
Height : 400 pixels
Display aspect ratio : 16:9
Frame rate : 25.000 fps
Color space : YUV
Chroma subsampling : 4:2:0
Bit depth : 8 bits
Scan type : Progressive
Compression mode : Lossy
Bits/(Pixel*Frame) : 0.311
Stream size : 1.36 GiB (92%)
Writing library : XviD 1.2.1 (UTC 2008-12-04)
Audio
ID : 1
Format : AC-3
Format/Info : Audio Coding 3
Mode extension : CM (complete main)
Format settings, Endianness : Big
Codec ID : 2000
Duration : 1h 26mn
Bit rate mode : Constant
Bit rate : 192 Kbps
Channel(s) : 2 channels
Channel positions : Front: L R
Sampling rate : 48.0 KHz
Bit depth : 16 bits
Compression mode : Lossy
Delay relative to video : 16ms
Stream size : 119 MiB (8%)
Alignment : Split accross interleaves
Interleave, duration : 40 ms (1.00 video frame)
Interleave, preload duration : 500 ms

Скриншоты


To download the content you need:
1. Download and install torrent client [for Windows] or for mobile system
2. Click on [Download]
Attention.
If the test YOU are NOT a ROBOT - does not work, then You are using an outdated browser.
Install the current browser and click on [Download]

Do not work with Yandex browser. Uploading files to them is erroneous.
Security: torrent client is allowed by Kaspersky.

[en.asmlocator.ru].t4545.torrent 
Torrent: Registered [ 2015-12-01 13:55 ] · 8AE0D981B744C6C82DCE37610BD61E163FA89649

Download .torrent

Download

15 KB

Status: checked
Completed: 0 times
Size: 1.48 GB
terms.php
[Profile] [PM]
Display posts:    
Reply to topic

Current time is: 29-Mar 18:06

All times are UTC ± 0



You cannot post new topics in this forum
You cannot reply to topics in this forum
You cannot edit your posts in this forum
You cannot delete your posts in this forum
You cannot vote in polls in this forum
You cannot attach files in this forum
You can download files in this forum
Верим фактам, а не вранью Путина! Факт, что Правительство ведёт Россию к истреблению.
Так как численность населения падает, даже не смотря на приток эмигрантов!
Русская нация вымирает и вырождается, смешиваясь с эмигрантами!
Факт, что военных и граждан предприятий заставляют голосовать за партию Единая Россия и Путина
ПОД СТРАХОМ УВОЛЬНЕНИЯ!
Нам не нужно Правительство, блокирующее личную жизнь, интернет, нарушающее сохранность данных.
Все эти действия финансируются за счёт народа!