Пугала / Scarecrows (Уильям Уэсли / William Wesley) [1988, США, ужасы, BDRip] DVO (НТВ+) + Original (Eng)

Reply to topic
DL-List and Torrent activity
Size:  1.46 GB   |    Registered:  4 years 4 months   |    Completed:  0 times

Seeder not seen: Never

 
   
 
 
Author Message

star21 ®

Gender: Female

Longevity: 4 years 4 months

Posts: 551945

Location: Екатеринбург

Post 01-Dec-2015 13:58

[Quote]

Пугала / Scarecrows
«They Only Want A Brain ... Yours»
- Страна: США
Жанр: ужасы
Год выпуска: 1988
Продолжительность: 01:23:24
Перевод: Профессиональный (двухголосый закадровый) НТВ+
Cубтитры: нет
Оригинальная звуковая дорожка [English]-Режиссер: Уильям Уэсли / William Wesley
Сценарий: Ричард Джеффрис / Richard Jefferies
Продюсер: Тед Вернон / Ted Vernon
Оператор: Питер Диминг / Peter Deming
Композитор: Терри Плюмери / Terry Plumeri-В ролях:
Тед Вернон (Corbin), Майкл Дэвид Симс (Curry), Ричард Видан (Jack), Кристина Сэнборн (Roxanne), Виктория Кристиан (Kellie), Дэвид Джеймс Кэмпбелл (Al), Б.Дж. Тернер (Bert), Дэкс Вернон (Dax), Tony Santory (Jakob Fowler), Phil Zenderland (Norman Fowler), Майк Балог (Benjamin Fowler), Дон Херберт (Radio Newscaster, озвучка).-Описание:
Пятеро террористов нападают на базу ВВС США, и перестреляв много людей, похищают 3 миллиона долларов. К ним в заложники попадают пилот и его дочь, которые вынуждены вместе с грабителями покинуть базу на похищенном самолёте. По дороге в Мексику один из террористов, «кидая» своих подельников, одевает парашют и выпрыгивает из самолёта вместе с деньгами. Его коллеги, придя в ярость от предательства партнера, устремляются за ним в погоню. Той же ночью они настигают его на заброшенной ферме, окруженной огромным кукурузным полем, на котором стоят в особом порядке огородные пугала… Отчаянные парни даже не подозревали, в какую кровавую охоту они ввязались…-Бюджет: $425 000
Мировая премьера: 28 сентября 1988
-Рейтинг
kinopoisk.ru: 5.583 (362)
imdb.com: 5.70 (2582)

MPAA: - Детям до 17 лет обязательно присутствие родителей-Качество видео: BD-Rip | исх. ☞ « Spiellberg / / 1080p. MPEG-4 AVC. BD-Remux »
Формат видео: AVI ///СОВМЕСТИМО С БЫТОВЫМИ ПЛЕЕРАМИ///→ //SAMPLE//
Видео: 704x384 (1.83:1), 23.976 fps, XviD build 66 ~1851 kbps avg, 0.28 bit/pixel
Аудио#1: 48.0 kHz, AC3 Dolby Digital, 2/0 (L,R) ch, ~192 kbps | DVO
Аудио#2: 48.0 kHz, AC3 Dolby Digital, 3/2 (L,C,R,l,r) + LFE ch, ~448 kbps | ENG
Размер: 1494.99 Mb (1/3 DVDR)
-

MediaInfo

Общее
Полное имя : D:\Фильмы\Scarecrows.1988.BD-Rip.XviD.1,46Gb.AC3..avi
Формат : AVI
Формат/Информация : Audio Video Interleave
Размер файла : 1,46 Гбайт
Продолжительность : 1 ч. 23 м.
Общий поток : 2507 Кбит/сек
Программа кодирования : VirtualDubMod 1.5.10.3 | www.virtualdub-fr.org || (build 2550/release)
Библиотека кодирования : VirtualDubMod build 2550/release
Видео
Идентификатор : 0
Формат : MPEG-4 Visual
Профиль формата : Advanced Simple@L5
Параметр BVOP формата : 1
Параметр QPel формата : Нет
Параметр GMC формата : Без точки перехода
Параметр матрицы формата : Выборочная
Идентификатор кодека : XVID
Идентификатор кодека/Подсказка : XviD
Продолжительность : 1 ч. 23 м.
Битрейт : 1852 Кбит/сек
Ширина : 704 пикселя
Высота : 384 пикселя
Соотношение сторон : 1,85:1
Частота кадров : 23,976 кадра/сек
Цветовое пространство : YUV
Субдискретизация насыщенности : 4:2:0
Битовая глубина : 8 бит
Тип развёртки : Прогрессивная
Метод сжатия : С потерями
Бит/(Пиксели*Кадры) : 0.286
Размер потока : 1,08 Гбайт (74%)
Библиотека кодирования : XviD 66
Аудио #1
Идентификатор : 1
Формат : AC-3
Формат/Информация : Audio Coding 3
Расширение режима : CM (complete main)
Параметр Endianness формата : Big
Идентификатор кодека : 2000
Продолжительность : 1 ч. 23 м.
Вид битрейта : Постоянный
Битрейт : 192 Кбит/сек
Каналы : 2 канала
Расположение каналов : Front: L R
Частота : 48,0 КГц
Битовая глубина : 16 бит
Метод сжатия : С потерями
Размер потока : 115 Мбайт (8%)
Выравнивание : Разделение по промежуткам
Продолжительность промежутка : 42 мс. (1,00 видеокадр)
Время предзагрузки промежутка : 500 мс.
Аудио #2
Идентификатор : 2
Формат : AC-3
Формат/Информация : Audio Coding 3
Расширение режима : CM (complete main)
Параметр Endianness формата : Big
Идентификатор кодека : 2000
Продолжительность : 1 ч. 23 м.
Вид битрейта : Постоянный
Битрейт : 448 Кбит/сек
Каналы : 6 каналов
Расположение каналов : Front: L C R, Side: L R, LFE
Частота : 48,0 КГц
Битовая глубина : 16 бит
Метод сжатия : С потерями
Размер потока : 267 Мбайт (18%)
Выравнивание : Разделение по промежуткам
Продолжительность промежутка : 42 мс. (1,00 видеокадр)
Время предзагрузки промежутка : 500 мс.

Скриншот c названием фильма

Скриншоты

To download the content you need:
1. Download and install torrent client [for Windows] or for mobile system
2. Click on [Download]
Attention.
If the test YOU are NOT a ROBOT - does not work, then You are using an outdated browser.
Install the current browser and click on [Download]

Do not work with Yandex browser. Uploading files to them is erroneous.
Security: torrent client is allowed by Kaspersky.

[en.asmlocator.ru].t4540.torrent 
Torrent: Registered [ 2015-12-01 13:55 ] · 04929FDEE3D7258D285F28526A358ED60221C55F

Download .torrent

Download

15 KB

Status: checked
Completed: 0 times
Size: 1.46 GB
terms.php
[Profile] [PM]
Display posts:    
Reply to topic

Current time is: 05-Apr 04:12

All times are UTC ± 0



You cannot post new topics in this forum
You cannot reply to topics in this forum
You cannot edit your posts in this forum
You cannot delete your posts in this forum
You cannot vote in polls in this forum
You cannot attach files in this forum
You can download files in this forum
Верим фактам, а не вранью Путина! Факт, что Правительство ведёт Россию к истреблению.
Так как численность населения падает, даже не смотря на приток эмигрантов!
Русская нация вымирает и вырождается, смешиваясь с эмигрантами!
Факт, что военных и граждан предприятий заставляют голосовать за партию Единая Россия и Путина
ПОД СТРАХОМ УВОЛЬНЕНИЯ!
Нам не нужно Правительство, блокирующее личную жизнь, интернет, нарушающее сохранность данных.
Все эти действия финансируются за счёт народа!