Большие огненные шары / Огромные шаровые молнии / Great Balls of Fire! (Джим МакБрайд / Jim McBride) [1989, США, драма, биография, музыка, HDTVRip] DVO (НТВ+)

Reply to topic
DL-List and Torrent activity
Size:  1.45 GB   |    Registered:  4 years 4 months   |    Completed:  0 times

Seeder not seen: Never

 
   
 
 
Author Message

star21 ®

Gender: Female

Longevity: 4 years 4 months

Posts: 551945

Location: Екатеринбург

Post 01-Dec-2015 13:58

[Quote]

Большие огненные шары / Огромные шаровые молнии / Great Balls of Fire!
Страна: США
Жанр: драма, биография, музыка
Год выпуска: 1989
Продолжительность: 01:47:29
Перевод: Профессиональный (двухголосый закадровый) НТВ+
Cубтитры: нет
Режиссер: Джим МакБрайд / Jim McBride
В ролях: Деннис Куэйд, Вайнона Райдер, Джон Доу, Стивен Тоболовски, Трей Уилсон, Алек Болдуин, Стив Аллен, Лиза Блонт, Джошуа Шеффилд и др.
Описание: Фильм о знаменитом пианисте, певце и композиторе, легенде рок-н-рола, Джерри Ли Льюисе. В центре картины стоит его любовь к жене, тринадцатилетней Майре, из-за юности которой на него было столько нападок. Майра была дочерью его двоюродного брата, в доме которого он жил, но и музыка в картине, естественно, не забыта. Льюис стал королем рока тогда, когда в расцвете был Элвис Пресли, и это было не легко, но гений, данный ему от бога, заявил о себе бешено и властно.
Доп. информация: Видеоряд отсюда
Дорожка от Ledy_X

Сэмпл: https://yadi.sk/i/_Vw5FQGphHc4J
Качество видео: HDTVRip
Формат видео: AVI
Видео: 688x368 (1.87:1), 23.976 fps, XviD build 50 ~1731 kbps avg, 0.28 bit/pixel
Аудио: 48 kHz, AC3 Dolby Digital, 2 ch, ~192.00 kbps avg

MediaInfo

Огромные шаровые молнии - Great Balls of Fire! [by Edich2].avi
Format : AVI
Format/Info : Audio Video Interleave
File size : 1.45 GiB
Duration : 1h 47mn
Overall bit rate : 1 933 Kbps
Movie name : Огромные шаровые молнии - Great Balls of Fire! [by Edich2]
Director : by Edich2
Writing application : VirtualDubMod 1.5.10.2 (build 2540/release)
Comment : RuTracker.org
Video
ID : 0
Format : MPEG-4 Visual
Format profile : Advanced Simple@L5
Format settings, BVOP : 1
Format settings, QPel : No
Format settings, GMC : No warppoints
Format settings, Matrix : Custom
Codec ID : XVID
Codec ID/Hint : XviD
Duration : 1h 47mn
Bit rate : 1 732 Kbps
Width : 688 pixels
Height : 368 pixels
Display aspect ratio : 1.85:1
Frame rate : 23.976 fps
Color space : YUV
Chroma subsampling : 4:2:0
Bit depth : 8 bits
Scan type : Progressive
Compression mode : Lossy
Bits/(Pixel*Frame) : 0.285
Stream size : 1.30 GiB (90%)
Writing library : XviD 1.2.1 (UTC 2008-12-04)
Audio
ID : 1
Format : AC-3
Format/Info : Audio Coding 3
Mode extension : CM (complete main)
Format settings, Endianness : Big
Codec ID : 2000
Duration : 1h 47mn
Bit rate mode : Constant
Bit rate : 192 Kbps
Channel(s) : 2 channels
Channel positions : Front: L R
Sampling rate : 48.0 KHz
Bit depth : 16 bits
Compression mode : Lossy
Delay relative to video : 700ms
Stream size : 148 MiB (10%)
Alignment : Split accross interleaves
Interleave, duration : 42 ms (1.00 video frame)
Interleave, preload duration : 500 ms

Скриншоты


To download the content you need:
1. Download and install torrent client [for Windows] or for mobile system
2. Click on [Download]
Attention.
If the test YOU are NOT a ROBOT - does not work, then You are using an outdated browser.
Install the current browser and click on [Download]

Do not work with Yandex browser. Uploading files to them is erroneous.
Security: torrent client is allowed by Kaspersky.

[en.asmlocator.ru].t4537.torrent 
Torrent: Registered [ 2015-12-01 13:55 ] · 44C5AEE1EFAC013E2DD8BD739C1011634782BE16

Download .torrent

Download

15 KB

Status: checked
Completed: 0 times
Size: 1.45 GB
terms.php
[Profile] [PM]
Display posts:    
Reply to topic

Current time is: 05-Apr 02:43

All times are UTC ± 0



You cannot post new topics in this forum
You cannot reply to topics in this forum
You cannot edit your posts in this forum
You cannot delete your posts in this forum
You cannot vote in polls in this forum
You cannot attach files in this forum
You can download files in this forum
Верим фактам, а не вранью Путина! Факт, что Правительство ведёт Россию к истреблению.
Так как численность населения падает, даже не смотря на приток эмигрантов!
Русская нация вымирает и вырождается, смешиваясь с эмигрантами!
Факт, что военных и граждан предприятий заставляют голосовать за партию Единая Россия и Путина
ПОД СТРАХОМ УВОЛЬНЕНИЯ!
Нам не нужно Правительство, блокирующее личную жизнь, интернет, нарушающее сохранность данных.
Все эти действия финансируются за счёт народа!