Прощальные взгляды / Parting Glances (Билл Шервуд / Bill Sherwood) [1986, США, драма, мелодрама, музыка, гей тема, DVDRip] AVO Кузнецов

Reply to topic
DL-List and Torrent activity
Size:  732 MB   |    Registered:  4 years 3 months   |    Completed:  3 times

Seeder not seen: 5 months 11 days

 
   
 
 
Author Message

star21 ®

Gender: Female

Longevity: 4 years 4 months

Posts: 551945

Location: Екатеринбург

Post 01-Dec-2015 13:58

[Quote]

Прощальные взгляды / Parting Glances
Страна: США
Жанр: драма, мелодрама, музыка, гей тема
Год выпуска: 1986
Продолжительность: 01:30:04
Перевод: Авторский одноголосый закадровый Кузнецов
Cубтитры: нет
Режиссер: Билл Шервуд / Bill Sherwood
В ролях: Ричард Ганунг
Джон Болджер
Стив Бушеми
Адам Нэйтан
Кэти Кинни
Патрик Тулл
Иоланда Баван
Андре Э. Морган
Ричард Уолл
Джим Селфи
Описание: Гей-семья, один из партнеров должен уехать в длительную командировку в Африку. Предотъездное время становится испытанием их любви друг к другу. Тот, который остается, знакомится с симпатичным парнем, но отвергает его попытки переспать, а тот, который уезжает, понимает, что командировка подстроена его начальником-геем, пытающимся таким образом остаться наедине с ним в Африке…
Доп. информация: За дорожку спасибо Glowamy
За синхрон дорожки спасибо xelon2006

Релиз
Сэмпл: https://yadi.sk/i/EqLQbIkehJHgy
Качество видео: DVDRip
Формат видео: AVI
Видео: 640x480 (1.33:1), 29.970 fps, DivX Codec 5.02 build 484 ~932 kbps avg, 0.10 bit/pixel
Аудио: 48 kHz, AC3 Dolby Digital, 2/0 (L,R) ch, ~192 kbps

MediaInfo

Прощальные взгляды - Parting Glances [by Edich2].avi
Format : AVI
Format/Info : Audio Video Interleave
File size : 732 MiB
Duration : 1h 30mn
Overall bit rate : 1 136 Kbps
Movie name : Прощальные взгляды - Parting Glances [by Edich2]
Director : by Edich2
Comment : RuTracker.org
Video
ID : 0
Format : MPEG-4 Visual
Format settings, BVOP : Yes
Format settings, QPel : No
Format settings, GMC : No warppoints
Format settings, Matrix : Default (H.263)
Codec ID : DX50
Codec ID/Hint : DivX 5
Duration : 1h 30mn
Bit rate : 933 Kbps
Width : 640 pixels
Height : 480 pixels
Display aspect ratio : 4:3
Frame rate : 29.970 fps
Color space : YUV
Chroma subsampling : 4:2:0
Bit depth : 8 bits
Scan type : Progressive
Compression mode : Lossy
Bits/(Pixel*Frame) : 0.101
Stream size : 601 MiB (82%)
Writing library : DivX 5.0.2 (UTC 2002-05-16)
Audio
ID : 1
Format : AC-3
Format/Info : Audio Coding 3
Mode extension : CM (complete main)
Format settings, Endianness : Big
Codec ID : 2000
Duration : 1h 30mn
Bit rate mode : Constant
Bit rate : 192 Kbps
Channel(s) : 2 channels
Channel positions : Front: L R
Sampling rate : 48.0 KHz
Bit depth : 16 bits
Compression mode : Lossy
Stream size : 124 MiB (17%)
Alignment : Aligned on interleaves
Interleave, duration : 33 ms (1.00 video frame)
Interleave, preload duration : 512 ms

Скриншоты


To download the content you need:
1. Download and install torrent client [for Windows] or for mobile system
2. Click on [Download]
Attention.
If the test YOU are NOT a ROBOT - does not work, then You are using an outdated browser.
Install the current browser and click on [Download]

Do not work with Yandex browser. Uploading files to them is erroneous.
Security: torrent client is allowed by Kaspersky.

[en.asmlocator.ru].t4535.torrent 
Torrent: Registered [ 2015-12-01 13:55 ] · 6CB3A351454DEA56E0957E26689EFFD76751523F

Download .torrent

Download

15 KB

Status: checked
Completed: 3 times
Size: 732 MB
terms.php
[Profile] [PM]
Display posts:    
Reply to topic

Current time is: 31-Mar 16:32

All times are UTC ± 0



You cannot post new topics in this forum
You cannot reply to topics in this forum
You cannot edit your posts in this forum
You cannot delete your posts in this forum
You cannot vote in polls in this forum
You cannot attach files in this forum
You can download files in this forum
Верим фактам, а не вранью Путина! Факт, что Правительство ведёт Россию к истреблению.
Так как численность населения падает, даже не смотря на приток эмигрантов!
Русская нация вымирает и вырождается, смешиваясь с эмигрантами!
Факт, что военных и граждан предприятий заставляют голосовать за партию Единая Россия и Путина
ПОД СТРАХОМ УВОЛЬНЕНИЯ!
Нам не нужно Правительство, блокирующее личную жизнь, интернет, нарушающее сохранность данных.
Все эти действия финансируются за счёт народа!