Состояние сердца / Heart Condition (Джеймс Д. Пэрриотт / James D. Parriott) [1989, США, фэнтези, боевик, драма, комедия, WEB-DLRip] MVO + AVO (Алексей Михалёв) + Sub Eng + Original Eng

Reply to topic
DL-List and Torrent activity
Size:  2.08 GB   |    Registered:  4 years 7 months   |    Completed:  0 times

Seeder not seen: Never

 
   
 
 
Author Message

star21 ®

Gender: Female

Longevity: 4 years 8 months

Posts: 551945

Location: Екатеринбург

Post 01-Dec-2015 13:58

[Quote]

Состояние сердца / Heart Condition
Страна: США
Жанр: фэнтези, боевик, драма, комедия
Год выпуска: 1989
Продолжительность: 01:40:10
Перевод 1: Профессиональный (многоголосый закадровый)
Перевод 2: Авторский (одноголосый закадровый) Алексей Михалёв отдельным файлом
Cубтитры: английские
Оригинальная аудиодорожка: английский отдельным файлом
Режиссер: Джеймс Д. Пэрриотт / James D. Parriott
В ролях: Боб Хоскинс, Дензел Вашингтон, Хлоя Уэбб, Роджер Э. Мосли, Джанет Дюбуа, Алан Рачинс, Рэй Бэйкер, Джеффри Мик, Ева ЛаРю Каллахан, Фрэнк Р. Роач...
Описание: Лос-анджелесский полицейский Джек Муни — расист по убеждению. Можете представить его недовольство, когда он, придя в себя после трансплантационной операции узнает, что ему пересажено сердце негра. И не простого негра, а личного врага Джека — погибшего накануне адвоката, связанного с преступным миром. И можете представить бешенство Джека, когда негр начинает «доставать» его даже после своей смерти, являясь к полицейскому в качестве призрака.
Доп. информация: Многоголоска с раздачи mrrfrost, по тв транслировали урезанную версию, пропущенные места компенсированны переводом Михалёва.
Сэмпл: http://multi-up.com/1054148
Качество видео: WEB-DLRip
Формат видео: AVI
Видео: 720x400 (1.80:1), 23.976 fps, XviD build 73 ~1869 kbps avg, 0.27 bit/pixel
Аудио 1: 48 kHz, AC3 Dolby Digital, 2/0 (L,R) ch, ~192 kbps MVO
Аудио 2: 48 kHz, AC3 Dolby Digital, 3/2 (L,C,R,l,r) + LFE ch, ~448 kbps Михалёв отдельным файлом
Аудио 3: 48 kHz, AC3 Dolby Digital, 3/2 (L,C,R,l,r) + LFE ch, ~448 kbps Eng отдельным файлом

MediaInfo

General
Complete name : C:\Heart Condition\Heart Condition.avi
Format : AVI
Format/Info : Audio Video Interleave
File size : 1.45 GiB
Duration : 1h 40mn
Overall bit rate : 2 071 Kbps
Writing application : VirtualDubMod 1.5.10.3 (build 2550/release)
Writing library : VirtualDubMod build 2550/release
Video
ID : 0
Format : MPEG-4 Visual
Format profile : Advanced Simple@L5
Format settings, BVOP : 1
Format settings, QPel : No
Format settings, GMC : No warppoints
Format settings, Matrix : Custom
Codec ID : XVID
Codec ID/Hint : XviD
Duration : 1h 40mn
Bit rate : 1 870 Kbps
Width : 720 pixels
Height : 400 pixels
Display aspect ratio : 16:9
Frame rate : 23.976 fps
Color space : YUV
Chroma subsampling : 4:2:0
Bit depth : 8 bits
Scan type : Progressive
Compression mode : Lossy
Bits/(Pixel*Frame) : 0.271
Stream size : 1.31 GiB (90%)
Writing library : XviD 73
Audio
ID : 1
Format : AC-3
Format/Info : Audio Coding 3
Mode extension : CM (complete main)
Format settings, Endianness : Big
Codec ID : 2000
Duration : 1h 40mn
Bit rate mode : Constant
Bit rate : 192 Kbps
Channel(s) : 2 channels
Channel positions : Front: L R
Sampling rate : 48.0 KHz
Compression mode : Lossy
Stream size : 138 MiB (9%)
Alignment : Split accross interleaves
Interleave, duration : 42 ms (1.00 video frame)
Interleave, preload duratio : 500 ms

Скриншоты

To download the content you need:
1. Download and install torrent client [for Windows] or for mobile system
2. Click on [Download]
Attention.
If the test YOU are NOT a ROBOT - does not work, then You are using an outdated browser.
Install the current browser and click on [Download]

Do not work with Yandex browser. Uploading files to them is erroneous.
Security: torrent client is allowed by Kaspersky.

[en.asmlocator.ru].t4534.torrent 
Torrent: Registered [ 2015-12-01 13:55 ] · 285D1896FB54ED5391F6120270427229068A9732

Download .torrent

Download

11 KB

Status: checked
Completed: 0 times
Size: 2.08 GB
terms.php
[Profile] [PM]
Display posts:    
Reply to topic

Current time is: 11-Jul 21:36

All times are UTC ± 0



You cannot post new topics in this forum
You cannot reply to topics in this forum
You cannot edit your posts in this forum
You cannot delete your posts in this forum
You cannot vote in polls in this forum
You cannot attach files in this forum
You can download files in this forum
Верим фактам, а не вранью Путина! Факт, что Правительство ведёт Россию к истреблению.
Так как численность населения падает, даже не смотря на приток эмигрантов!
Русская нация вымирает и вырождается, смешиваясь с эмигрантами!
Факт, что военных и граждан предприятий заставляют голосовать за партию Единая Россия и Путина
ПОД СТРАХОМ УВОЛЬНЕНИЯ!
Нам не нужно Правительство, блокирующее личную жизнь, интернет, нарушающее сохранность данных.
Все эти действия финансируются за счёт народа!