Американский ниндзя / American Ninja (Сэм Фёрстенберг / Sam Firstenberg) [1985, США, боевик, мелодрама, приключения, BDRip] DVO (СТС) + Original (Eng)

Reply to topic
DL-List and Torrent activity
Size:  1.46 GB   |    Registered:  4 years 3 months   |    Completed:  0 times

Seeder not seen: Never

 
   
 
 
Author Message

star21 ®

Gender: Female

Longevity: 4 years 4 months

Posts: 551945

Location: Екатеринбург

Post 01-Dec-2015 13:58

[Quote]

Американский ниндзя / American Ninja
«The Orient created the world's deadliest art. Now there's an American master!»
- Страна: США
Жанр: боевик, мелодрама, приключения
Год выпуска: 1985
Продолжительность: 01:31:35
Перевод: Профессиональный (двухголосый закадровый) СТС
Cубтитры: нет
Оригинальная звуковая дорожка [English]-Режиссер: Сэм Фёрстенберг / Sam Firstenberg
Сценарий: Пол Де Мильхе / Paul De Mielche
Продюсер: Йорам Глобус / Yoram Globus
Оператор: Ханания Баэр / Hanania Baer-В ролях:
Майкл Дудикофф (Pvt. Joe T. Armstrong), Стив Джеймс (Cpl. Curtis Jackson), Джуди Аронсон (Patricia Hickock), Гуч Кук, Джон Фудзиока (Shinyuki), Дон Стюарт (Victor Ortega), Джон ЛаМотта (Rinaldo), Тадаси Ямасита (Black Star Ninja), Филлип Брок (Pvt. Charley Madison), Тони Калдерон (Older Colombian).-Описание:
Джо Армстронг, 18 - летний рядовой филиппинского отряда армии США, сопровождает военный конвой, который подвергается нападению бандитов. В одном из них Джо узнает черного воина - ниндзя. Обороняясь, он инстинктивно начинает использовать технику ниндзюцу. Эта неожиданно проявившаяся способность вызывает подозрение у командира его отряда и остальных солдат. Распутывая паутину темных интриг, Джо остается один в битве с окружающей его коррупцией. В конце концов, в глубине непроходимых джунглей, Джо раскрывает тайну собственного прошлого, тайну, ведущую его к последнему бою со зловещим предводителем Черных Ниндзя.-Бюджет: $1 000 000
Сборы в США: $10 499 694-Мировая премьера: 30 августа 1985
-Рейтинг
kinopoisk.ru: 6.394 (2631)
imdb.com: 5.30 (9283)

MPAA: - Детям до 17 лет обязательно присутствие родителей-Качество видео: BD-Rip | исх. ☞ « ilgizik01 / / 1080p. MPEG-4 AVC. BD-Remux »
Формат видео: AVI ///СОВМЕСТИМО С БЫТОВЫМИ ПЛЕЕРАМИ///→ //SAMPLE//
Видео: 704x384 (1.83:1), 23.976 fps, XviD build 66 ~1782 kbps avg, 0.28 bit/pixel
Аудио#1: 48.0 kHz, AC3 Dolby Digital, 2/0 (L,R) ch, ~192 kbps | DVO
Аудио#2: 48.0 kHz, AC3 Dolby Digital, 2/0 (L,R) ch, ~192 kbps | ENG
Размер: 1495.95 Mb (1/3 DVDR)
-

MediaInfo

Общее
Полное имя : D:\Фильмы\American Ninja.1985.BD-Rip.XviD.1,46Gb.AC3.avi
Формат : AVI
Формат/Информация : Audio Video Interleave
Размер файла : 1,46 Гбайт
Продолжительность : 1 ч. 35 м.
Общий поток : 2181 Кбит/сек
Программа кодирования : VirtualDubMod 1.5.10.3 | www.virtualdub-fr.org || (build 2550/release)
Библиотека кодирования : VirtualDubMod build 2550/release
Видео
Идентификатор : 0
Формат : MPEG-4 Visual
Профиль формата : Advanced Simple@L5
Параметр BVOP формата : 1
Параметр QPel формата : Нет
Параметр GMC формата : Без точки перехода
Параметр матрицы формата : Default (MPEG)
Идентификатор кодека : XVID
Идентификатор кодека/Подсказка : XviD
Продолжительность : 1 ч. 35 м.
Битрейт : 1783 Кбит/сек
Ширина : 704 пикселя
Высота : 384 пикселя
Соотношение сторон : 1,85:1
Частота кадров : 23,976 кадра/сек
Цветовое пространство : YUV
Субдискретизация насыщенности : 4:2:0
Битовая глубина : 8 бит
Тип развёртки : Прогрессивная
Метод сжатия : С потерями
Бит/(Пиксели*Кадры) : 0.275
Размер потока : 1,19 Гбайт (82%)
Библиотека кодирования : XviD 66
Аудио #1
Идентификатор : 1
Формат : AC-3
Формат/Информация : Audio Coding 3
Расширение режима : CM (complete main)
Параметр Endianness формата : Big
Идентификатор кодека : 2000
Продолжительность : 1 ч. 35 м.
Вид битрейта : Постоянный
Битрейт : 192 Кбит/сек
Каналы : 2 канала
Расположение каналов : Front: L R
Частота : 48,0 КГц
Битовая глубина : 16 бит
Метод сжатия : С потерями
Размер потока : 132 Мбайт (9%)
Выравнивание : Разделение по промежуткам
Продолжительность промежутка : 42 мс. (1,00 видеокадр)
Время предзагрузки промежутка : 500 мс.
Аудио #2
Идентификатор : 2
Формат : AC-3
Формат/Информация : Audio Coding 3
Расширение режима : CM (complete main)
Параметр Endianness формата : Big
Идентификатор кодека : 2000
Продолжительность : 1 ч. 35 м.
Вид битрейта : Постоянный
Битрейт : 192 Кбит/сек
Каналы : 2 канала
Расположение каналов : Front: L R
Частота : 48,0 КГц
Битовая глубина : 16 бит
Метод сжатия : С потерями
Размер потока : 132 Мбайт (9%)
Выравнивание : Разделение по промежуткам
Продолжительность промежутка : 42 мс. (1,00 видеокадр)
Время предзагрузки промежутка : 500 мс.

Скриншот c названием фильма

Comparison


http://screenshotcomparison.com/comparison/131602/picture:6
недокроп слева и справа

Скриншоты

To download the content you need:
1. Download and install torrent client [for Windows] or for mobile system
2. Click on [Download]
Attention.
If the test YOU are NOT a ROBOT - does not work, then You are using an outdated browser.
Install the current browser and click on [Download]

Do not work with Yandex browser. Uploading files to them is erroneous.
Security: torrent client is allowed by Kaspersky.

[en.asmlocator.ru].t4533.torrent 
Torrent: Registered [ 2015-12-01 13:55 ] · A0BAC0EC1C4137270562C29759B99AC6F9E90BA3

Download .torrent

Download

15 KB

Status: checked
Completed: 0 times
Size: 1.46 GB
terms.php
[Profile] [PM]
Display posts:    
Reply to topic

Current time is: 29-Mar 17:26

All times are UTC ± 0



You cannot post new topics in this forum
You cannot reply to topics in this forum
You cannot edit your posts in this forum
You cannot delete your posts in this forum
You cannot vote in polls in this forum
You cannot attach files in this forum
You can download files in this forum
Верим фактам, а не вранью Путина! Факт, что Правительство ведёт Россию к истреблению.
Так как численность населения падает, даже не смотря на приток эмигрантов!
Русская нация вымирает и вырождается, смешиваясь с эмигрантами!
Факт, что военных и граждан предприятий заставляют голосовать за партию Единая Россия и Путина
ПОД СТРАХОМ УВОЛЬНЕНИЯ!
Нам не нужно Правительство, блокирующее личную жизнь, интернет, нарушающее сохранность данных.
Все эти действия финансируются за счёт народа!