Джонатан / Jonathan (Ганс В. Гайссендёрфер / Hans W. Geissendörfer) [1970, ФРГ, ужасы, триллер, готика, DVDRip] AVO (Дольский)

Reply to topic
DL-List and Torrent activity
Size:  1.45 GB   |    Registered:  4 years 4 months   |    Completed:  0 times

Seeder not seen: Never

 
   
 
 
Author Message

star21 ®

Gender: Female

Longevity: 4 years 4 months

Posts: 551945

Location: Екатеринбург

Post 01-Dec-2015 13:58

[Quote]

Джонатан / Jonathan
Страна: ФРГ
Жанр: ужасы, триллер, готика
Год выпуска: 1970
Продолжительность: 01:36:49
Перевод: Авторский (одноголосый закадровый) - Андрей Дольский
Cубтитры: нет

Режиссер: Ганс В. Гайссендёрфер / Hans W. Geissendörfer
В ролях: Юрген Юнг, Ганс-Дитрих Ендрейко, Пол Альберт Крумм, Херта фон Вальтер, Оскар фон Шаб, Илона Грюбель, Софи Стрелоу, Гэби Хербст, Генри Липоска, Кристина Ретей
Описание: Средневековую Германию окутала эпидемия вампиризма. Вампиры живут в богатых поместьях и замках и питаются деревенскими бедняками. Недовольные жители собирают, что то типа подпольного клуба заговорщиков на котором решают как им свергнуть гнёт богатых вампиров. Один из выступающих рассказал, что у него есть информация, что в одном из замков состоится слёт всех кровососов страны, и что хорошо бы было подослать туда какого нибудь шпиона чтобы он,,взорвал,, так сказать изнутри вампирское логово и изничтожил всех кровососов. Этим шпионов назначаюn молодого парня по имени Джонатан. Далее следует повествование путешествия Джонатана по пути в вампирский замок…
Откровенно революционный фильм из хиповых семидесятых. Богатые это кровососы, пьющие кровь простого народа. Отчетливо прослеживается влияние Жана Роллена и Жозе Можика Маринша. На мой взгляд пожалуй, небольшой перебор с пафосом и иногда с не совсем понятными образами..Но можно смело закрыть на всё это глаза..Ведь сама идея, то хорошая..

Качество видео:
Формат видео: AVI
Видео: 624x480 (1.30:1), 25 fps, XviD build 73 ~1944 kbps avg, 0.26 bit/pixel
Аудио: 48 kHz, AC3 Dolby Digital, 2/0 (L,R) ch, ~192 kbps

MediaInfo

Общее
Полное имя : H:\Jonathan.1970.dvdrip_[1.46]_[teko].avi
Формат : AVI
Формат/Информация : Audio Video Interleave
Размер файла : 1,45 Гбайт
Продолжительность : 1 ч. 36 м.
Общий поток : 2146 Кбит/сек
Программа кодирования : VirtualDubMod 1.5.10.3 | www.virtualdub-fr.org || (build 2550/release)
Библиотека кодирования : VirtualDubMod build 2550/release
Видео
Идентификатор : 0
Формат : MPEG-4 Visual
Профиль формата : Advanced Simple@L5
Параметр BVOP формата : 1
Параметр QPel формата : Нет
Параметр GMC формата : Без точки перехода
Параметр матрицы формата : Выборочная
Идентификатор кодека : XVID
Идентификатор кодека/Подсказка : XviD
Продолжительность : 1 ч. 36 м.
Битрейт : 1945 Кбит/сек
Ширина : 624 пикселя
Высота : 480 пикселей
Соотношение сторон : 4:3
Частота кадров : 25,000 кадров/сек
Цветовое пространство : YUV
Субдискретизация насыщенности : 4:2:0
Битовая глубина : 8 бит
Тип развёртки : Прогрессивная
Метод сжатия : С потерями
Бит/(Пиксели*Кадры) : 0.260
Размер потока : 1,32 Гбайт (91%)
Библиотека кодирования : XviD 73
Аудио
Идентификатор : 1
Формат : AC-3
Формат/Информация : Audio Coding 3
Расширение режима : CM (complete main)
Параметр Endianness формата : Big
Идентификатор кодека : 2000
Продолжительность : 1 ч. 36 м.
Вид битрейта : Постоянный
Битрейт : 192 Кбит/сек
Каналы : 2 канала
Расположение каналов : Front: L R
Частота : 48,0 КГц
Битовая глубина : 16 бит
Метод сжатия : С потерями
Размер потока : 133 Мбайт (9%)
Выравнивание : Разделение по промежуткам
Продолжительность промежутка : 40 мс. (1,00 видеокадр)
Время предзагрузки промежутка : 500 мс.
Релиз группы:
-
-

To download the content you need:
1. Download and install torrent client [for Windows] or for mobile system
2. Click on [Download]
Attention.
If the test YOU are NOT a ROBOT - does not work, then You are using an outdated browser.
Install the current browser and click on [Download]

Do not work with Yandex browser. Uploading files to them is erroneous.
Security: torrent client is allowed by Kaspersky.

[en.asmlocator.ru].t4530.torrent 
Torrent: Registered [ 2015-12-01 13:55 ] · 66C747C0B2B26CDD5E169F71736F92395F7FA8B2

Download .torrent

Download

15 KB

Status: checked
Completed: 0 times
Size: 1.45 GB
terms.php
[Profile] [PM]
Display posts:    
Reply to topic

Current time is: 04-Apr 15:32

All times are UTC ± 0



You cannot post new topics in this forum
You cannot reply to topics in this forum
You cannot edit your posts in this forum
You cannot delete your posts in this forum
You cannot vote in polls in this forum
You cannot attach files in this forum
You can download files in this forum
Верим фактам, а не вранью Путина! Факт, что Правительство ведёт Россию к истреблению.
Так как численность населения падает, даже не смотря на приток эмигрантов!
Русская нация вымирает и вырождается, смешиваясь с эмигрантами!
Факт, что военных и граждан предприятий заставляют голосовать за партию Единая Россия и Путина
ПОД СТРАХОМ УВОЛЬНЕНИЯ!
Нам не нужно Правительство, блокирующее личную жизнь, интернет, нарушающее сохранность данных.
Все эти действия финансируются за счёт народа!