Кикбоксер / Kickboxer (Марк ДиСалле / Mark DiSalle, Дэвид Уорт / David Worth) [1989, США, боевик, триллер, спорт, BDRip] AVO (Гаврилов) + AVO (Дохалов)

Reply to topic
DL-List and Torrent activity
Size:  1.46 GB   |    Registered:  4 years 3 months   |    Completed:  0 times

Seeder not seen: Never

 
   
 
 
Author Message

star21 ®

Gender: Female

Longevity: 4 years 4 months

Posts: 551945

Location: Екатеринбург

Post 01-Dec-2015 13:58

[Quote]

Кикбоксер / Kickboxer
Страна: США
Жанр: боевик, триллер, спорт
Год выпуска: 1989
Продолжительность: 01:37:30
Перевод: Авторский (одноголосый закадровый) Гаврилов
Перевод 2: Авторский (одноголосый закадровый) Дохалов
Cубтитры: нет
Режиссер: Марк ДиСалле / Mark DiSalle, Дэвид Уорт / David Worth
В ролях: Жан Клод Ван Дамм (Kurt Sloane), Деннис Алексио (Eric Sloane), Деннис Чан (Xian Chow), Мишель Кисси (Tong Po), Хэскелл В. Андерсон III (Winston Taylor), Рошель Ашана (Mylee), Ка Тинг Ли (Freddy Li), Ричард Фу (Tao Liu), Рикки Лю (Big Thai Man), Син Хо Йинг (Huge Village Man #1)
Описание: Братья Курт и Эрик Слоан отправляются в Таиланд, на родину кикбоксинга, чтобы доказать местным бойцам превосходство американской школы над тайской. Эрик, чемпион Америки по кикбоксингу, встречается в бою с Тонг По, чемпионом Таиланда. Тонг По оказывается сущим зверем. Он намеренно калечит уже обессилевшего Эрика Слоана, обрекая его на инвалидность. Курт поступает в обучение к мастеру тайской борьбы Зену, чтобы победить Тонг По и отомстить за парализованного брата.- -Автор: BEN-BEN
Релиз:
Качество видео: Rip
Формат видео: AVI
Видео: 704x384 (1.83:1), 23.976 fps, XviD build 50 ~1484 kbps avg, 0.23 bit/pixel
Аудио: 48 kHz, AC3 Dolby Digital, 3/2 (L,C,R,l,r) + LFE ch, ~448 kbps - Гаврилов
Аудио 2: 48 kHz, AC3 Dolby Digital, 2/0 (L,R) ch, ~192 kbps - Дохалов

MediaInfo

Общее
Полное имя : C:\Documents and Settings\User\Рабочий стол\фильмы\KickBoxer.1989.BDRip.АС3.BEN-BEN.avi
Формат : AVI
Формат/Информация : Audio Video Interleave
Размер файла : 1,46 Гбайт
Продолжительность : 1 ч. 37 м.
Общий поток : 2139 Кбит/сек
Программа кодирования : VirtualDubMod 1.5.10.2 (build 2540/release)
Библиотека кодирования : VirtualDubMod build 2540/release
Видео
Идентификатор : 0
Формат : MPEG-4 Visual
Профиль формата : Advanced Simple@L5
Параметр BVOP формата : 1
Параметр QPel формата : Нет
Параметр GMC формата : Без точки перехода
Параметр матрицы формата : Default (MPEG)
Идентификатор кодека : XVID
Идентификатор кодека/Подсказка : XviD
Продолжительность : 1 ч. 37 м.
Битрейт : 1485 Кбит/сек
Ширина : 704 пикселя
Высота : 384 пикселя
Соотношение сторон : 1,85:1
Частота кадров : 23,976 кадра/сек
Цветовое пространство : YUV
Субдискретизация насыщенности : 4:2:0
Битовая глубина : 8 бит
Тип развёртки : Прогрессивная
Метод сжатия : С потерями
Бит/(Пиксели*Кадры) : 0.229
Размер потока : 1,01 Гбайт (69%)
Библиотека кодирования : XviD 1.2.1 (UTC 2008-12-04)
Аудио #1
Идентификатор : 1
Формат : AC-3
Формат/Информация : Audio Coding 3
Расширение режима : CM (complete main)
Параметр Endianness формата : Big
Идентификатор кодека : 2000
Продолжительность : 1 ч. 37 м.
Вид битрейта : Постоянный
Битрейт : 448 Кбит/сек
Каналы : 6 каналов
Расположение каналов : Front: L C R, Side: L R, LFE
Частота : 48,0 КГц
Битовая глубина : 16 бит
Метод сжатия : С потерями
Размер потока : 312 Мбайт (21%)
Выравнивание : Разделение по промежуткам
Продолжительность промежутка : 42 мс. (1,00 видеокадр)
Время предзагрузки промежутка : 500 мс.
Аудио #2
Идентификатор : 2
Формат : AC-3
Формат/Информация : Audio Coding 3
Расширение режима : CM (complete main)
Параметр Endianness формата : Big
Идентификатор кодека : 2000
Продолжительность : 1 ч. 37 м.
Вид битрейта : Постоянный
Битрейт : 192 Кбит/сек
Каналы : 2 канала
Расположение каналов : Front: L R
Частота : 48,0 КГц
Битовая глубина : 16 бит
Метод сжатия : С потерями
Размер потока : 134 Мбайт (9%)
Выравнивание : Разделение по промежуткам
Продолжительность промежутка : 42 мс. (1,00 видеокадр)
Время предзагрузки промежутка : 500 мс.

Скриншоты


To download the content you need:
1. Download and install torrent client [for Windows] or for mobile system
2. Click on [Download]
Attention.
If the test YOU are NOT a ROBOT - does not work, then You are using an outdated browser.
Install the current browser and click on [Download]

Do not work with Yandex browser. Uploading files to them is erroneous.
Security: torrent client is allowed by Kaspersky.

[en.asmlocator.ru].t4529.torrent 
Torrent: Registered [ 2015-12-01 13:55 ] · 66A24F62A35E902F9F78253F952CC01324C8BBA7

Download .torrent

Download

15 KB

Status: checked
Completed: 0 times
Size: 1.46 GB
terms.php
[Profile] [PM]
Display posts:    
Reply to topic

Current time is: 30-Mar 00:59

All times are UTC ± 0



You cannot post new topics in this forum
You cannot reply to topics in this forum
You cannot edit your posts in this forum
You cannot delete your posts in this forum
You cannot vote in polls in this forum
You cannot attach files in this forum
You can download files in this forum
Верим фактам, а не вранью Путина! Факт, что Правительство ведёт Россию к истреблению.
Так как численность населения падает, даже не смотря на приток эмигрантов!
Русская нация вымирает и вырождается, смешиваясь с эмигрантами!
Факт, что военных и граждан предприятий заставляют голосовать за партию Единая Россия и Путина
ПОД СТРАХОМ УВОЛЬНЕНИЯ!
Нам не нужно Правительство, блокирующее личную жизнь, интернет, нарушающее сохранность данных.
Все эти действия финансируются за счёт народа!