Майкл О\'Хара IV / Michael O\'Hara the Fourth (Эрвен Джордан / Erven Jourdan) [1972, США, комедия, криминал, семейный, VHSRip] Dub (РТР) + Sub Rus + Original Eng

Reply to topic
DL-List and Torrent activity
Size:  925 MB   |    Registered:  4 years 7 months   |    Completed:  0 times

Seeder not seen: 2 years 6 months

 
   
 
 
Author Message

star21 ®

Gender: Female

Longevity: 4 years 8 months

Posts: 551945

Location: Екатеринбург

Post 01-Dec-2015 13:58

[Quote]

Майкл О'Хара IV / Michael O'Hara the Fourth
Страна: США
Жанр: комедия, криминал, семейный
Год выпуска: 1972
Продолжительность: 01:32:08
Перевод: Профессиональный (дублированный) РТР
(ВНИМАНИЕ!!! ДУБЛЯЖ ТОЛЬКО НА ПОЛОВИНУ ФИЛЬМА, ДАЛЬШЕ ИДЕТ ОРИГИНАЛ С РУССКИМИ СУБТИТРАМИ)
Cубтитры: русские
Оригинальная аудиодорожка: английский (на вторую половину фильма)
Режиссер: Эрвен Джордан / Erven Jourdan
В ролях: Дэн Дейли
Майкл МакГриви
Нехемия Персофф
Джо Энн Харрис
Уильям Брэмли
Джеймс Альманзар
Майк Генри
Мэгги Веллман
Ивонн Гилберт
Дэйв Уиллок
Описание: Имя Майкл О-Хара, всегда сочеталось с правоохранительными органами. Три поколения Майклов О- Хара, были образцовыми полицейскими. Когда, у Майкла О-Хары – третьего, родилась девочка, он узнал, что больше детей у него не будет. Поэтому, чтобы продолжить имя Майкл О-Хара, он назвал свою дочь – Майкл О-Хара – четвёртый, не смотря, что она девушка. Друзья стали звать её Майк. Теперь Майк, имеет тенденцию увлекаться вопросами полиции, но не всегда с хорошими результатами, которые раздражают ее отца. И несмотря на то, что он мног раз, просил её держаться подальше от дел полиции, она продолжает свою деятельность детектива-любителя. Вместе со своим парнем, Норманом и подругами Вильмой и Паркс, они постоянно попадают в курьёзные приключения. Фильм должен понравиться любителям семейного и приключенческого детектива. (oKLINE 55)
Доп. информация: Большая благодарность за субтитры хорошего человека под ником oKLINE 55
Без него не состоялся бы релиз.
А также за дубляж на половину фильма спасибо DD4678
xelon2006 - за синхрон дорожки.

Ну и МНЕ за организаторские способности.
ФИЛЬМ ИЗ РУБРИКИ ДИСНЕЙ ПО ПЯТНИЦАМ

Релиз-первоисточник
Сэмпл: https://yadi.sk/i/SJMUrg_GhMxR6
Качество видео: VHSRip
Формат видео: AVI
Видео: 720x480 (1.50:1), 29.970 fps, DivX Codec 4.x ~1200 kbps avg, 0.12 bit/pixel
Аудио: 48 kHz, AC3 Dolby Digital, 2/0 (L,R) ch, ~192 kbps
Формат субтитров: softsub (SRT)

MediaInfo

Майкл О'Хара IV - Michael O-Hara [by Edich2]\Michael O-Hara.avi
Format : AVI
Format/Info : Audio Video Interleave
File size : 925 MiB
Duration : 1h 32mn
Overall bit rate : 1 404 Kbps
Writing library : VirtualDub build 35491/release
Video
ID : 0
Format : MPEG-4 Visual
Format settings, BVOP : No
Format settings, QPel : No
Format settings, GMC : No warppoints
Format settings, Matrix : Default (H.263)
Codec ID : DIVX
Codec ID/Info : Project Mayo
Codec ID/Hint : DivX 4
Duration : 1h 32mn
Bit rate : 1 200 Kbps
Width : 720 pixels
Height : 480 pixels
Display aspect ratio : 4:3
Frame rate : 29.970 fps
Standard : NTSC
Color space : YUV
Chroma subsampling : 4:2:0
Bit depth : 8 bits
Scan type : Progressive
Compression mode : Lossy
Bits/(Pixel*Frame) : 0.116
Stream size : 791 MiB (85%)
Writing library : avc2.0.11.1110
Audio
ID : 1
Format : AC-3
Format/Info : Audio Coding 3
Mode extension : CM (complete main)
Format settings, Endianness : Big
Codec ID : 2000
Duration : 1h 32mn
Bit rate mode : Constant
Bit rate : 192 Kbps
Channel(s) : 2 channels
Channel positions : Front: L R
Sampling rate : 48.0 KHz
Bit depth : 16 bits
Compression mode : Lossy
Stream size : 127 MiB (14%)
Alignment : Aligned on interleaves
Interleave, duration : 33 ms (1.00 video frame)
Interleave, preload duration : 512 ms

Скриншоты


To download the content you need:
1. Download and install torrent client [for Windows] or for mobile system
2. Click on [Download]
Attention.
If the test YOU are NOT a ROBOT - does not work, then You are using an outdated browser.
Install the current browser and click on [Download]

Do not work with Yandex browser. Uploading files to them is erroneous.
Security: torrent client is allowed by Kaspersky.

[en.asmlocator.ru].t4528.torrent 
Torrent: Registered [ 2015-12-01 13:55 ] · 699D8C0AA7803C3EF8AE8A2A241407351F119930

Download .torrent

Download

19 KB

Status: checked
Completed: 0 times
Size: 925 MB
terms.php
[Profile] [PM]
Display posts:    
Reply to topic

Current time is: 11-Jul 21:59

All times are UTC ± 0



You cannot post new topics in this forum
You cannot reply to topics in this forum
You cannot edit your posts in this forum
You cannot delete your posts in this forum
You cannot vote in polls in this forum
You cannot attach files in this forum
You can download files in this forum
Верим фактам, а не вранью Путина! Факт, что Правительство ведёт Россию к истреблению.
Так как численность населения падает, даже не смотря на приток эмигрантов!
Русская нация вымирает и вырождается, смешиваясь с эмигрантами!
Факт, что военных и граждан предприятий заставляют голосовать за партию Единая Россия и Путина
ПОД СТРАХОМ УВОЛЬНЕНИЯ!
Нам не нужно Правительство, блокирующее личную жизнь, интернет, нарушающее сохранность данных.
Все эти действия финансируются за счёт народа!