Под вечер / К вечеру / Verso sera / Towards Evening (Франческа Аркибуджи / Francesca Archibugi) [1990, Италия, Франция, драма, DVDRip] MVO (Intra Communications)

Reply to topic
DL-List and Torrent activity
Size:  745 MB   |    Registered:  4 years 3 months   |    Completed:  0 times

Seeder not seen: 2 years 9 months

 
   
 
 
Author Message

star21 ®

Gender: Female

Longevity: 4 years 4 months

Posts: 551945

Location: Екатеринбург

Post 01-Dec-2015 13:58

[Quote]

Под вечер / К вечеру / Verso sera / Towards Evening Год выпуска: 1990.
Страна: Италия , Франция .
Жанр: драма.
Продолжительность: 01:36:31.
Перевод: Профессиональный (многоголосый закадровый) Intra Communications.
Субтитры: нет.
Оригинальная аудио дорожка: нет.
Режиссер: Франческа Аркибуджи / Francesca Archibugi.
В ролях:
Марчелло Мастроянни, Сандрин Боннэр, Джорджо Тирабасси, Зои Инкроччи, Лара Пранзони, Виктор Кавалло, Вероника Лазар, Паоло Панелли, Джованна Ралли, Джизелла Буринато, Пупо Де Лука, Данте Бьяджони, Стефано Ардити, Антонелла Аттили, Фабио Буссотти, Карла Кало, Мауро Гуаландри, Марко Лодоли, Анджела Лючани, Велия Маджоло, Фернандо Паннулло, Алессандро Пиччинини, Кончетта Руссино, Донателла Руссо, Ассунта Стаккони.
Описание:
Профессор Людовико Бруски, преподаватель на пенсии, самая большая мечта которого - абсолютный покой. К сожалению, его мечте не дано осуществиться, причиной хаоса в жизни пожилого мужчины становится его сын Оливьеро, его жена Стелла и их пятилетняя дочка Папере. Скоро брак молодых распадается, а профессор вынужден заботиться о невестке и внучке. Стелла - очень взбалмошная особа, Бруски думает даже выгнать её из дома. Но скоро между двумя такими разными людьми зарождаются взаимопонимание и симпатия друг к другу..
Доп. информация:
Киностудии: Ciné Cinq, Ellepi Films, Les Films de l'Ouest, La Générale d'Images, Paradis Films.
Авторы сценария: Франческа Арчибуджи, Глория Малатеста, Клаудия Сбариджа.
Оператор: Паоло Карнера.
Продюсеры: Гуидо Де Лаурентис, Лео Пескароло.
Композиторы: Баттиста Лена, Райнхардт Вагнер, Роберто Гатто.
Художники: Освальдо Дезидери, Паола Маркезин.
Премьера: 21 декабря 1990 года (Италия), 28 августа 1991 года (Франция).
Награды и номинации:
• 1991 - ММКФ (Москва) - Номинация в категории "Лучший фильм" - Золотой «Святой Георгий».
[imdb]http://www.imdb.com/title/tt0103200[/imdb]

Еще постеры


Качество: DVDRip
Формат: AVI
Видео: 608x368 (1.65:1), 25 fps, XviD build 50 ~957 kbps avg, 0.17 bit/pixel
Аудио: 48 kHz, MPEG Layer 3, 2 ch, ~112.00 kbps avg

Отчет Media Info

Общее
Полное имя : Pod.vecher.1990.XviD.DVDRip.avi
Format : AVI
Format/Info : Audio Video Interleave
File size : 745 MiB
Duration : 1h 36mn
Overall bit rate : 1 079 Kbps
Video
ID : 0
Format : MPEG-4 Visual
Format profile : Advanced Simple@L5
Format settings, BVOP : 1
Format settings, QPel : No
Format settings, GMC : No warppoints
Format settings, Matrix : Default (MPEG)
Codec ID : XVID
Codec ID/Hint : XviD
Duration : 1h 36mn
Bit rate : 957 Kbps
Width : 608 pixels
Height : 368 pixels
Display aspect ratio : 5:3
Frame rate : 25.000 fps
Color space : YUV
Chroma subsampling : 4:2:0
Bit depth : 8 bits
Scan type : Progressive
Compression mode : Lossy
Bits/(Pixel*Frame) : 0.171
Stream size : 661 MiB (89%)
Writing library : XviD 1.2.1 (UTC 2008-12-04)
Audio
ID : 1
Format : MPEG Audio
Format version : Version 1
Format profile : Layer 3
Mode : Joint stereo
Mode extension : MS Stereo
Codec ID : 55
Codec ID/Hint : MP3
Duration : 1h 36mn
Bit rate mode : Constant
Bit rate : 112 Kbps
Channel(s) : 2 channels
Sampling rate : 48.0 KHz
Compression mode : Lossy
Stream size : 77.3 MiB (10%)
Alignment : Split accross interleaves
Interleave, duration : 40 ms (1.00 video frame)
Interleave, preload duratio : 500 ms.

Скриншоты

Альтернативный хост

To download the content you need:
1. Download and install torrent client [for Windows] or for mobile system
2. Click on [Download]
Attention.
If the test YOU are NOT a ROBOT - does not work, then You are using an outdated browser.
Install the current browser and click on [Download]

Do not work with Yandex browser. Uploading files to them is erroneous.
Security: torrent client is allowed by Kaspersky.

[en.asmlocator.ru].t4524.torrent 
Torrent: Registered [ 2015-12-01 13:55 ] · 4C553DB240C84B973ADFDDD478F28A9461C489B2

Download .torrent

Download

15 KB

Status: checked
Completed: 0 times
Size: 745 MB
terms.php
[Profile] [PM]
Display posts:    
Reply to topic

Current time is: 29-Mar 19:00

All times are UTC ± 0



You cannot post new topics in this forum
You cannot reply to topics in this forum
You cannot edit your posts in this forum
You cannot delete your posts in this forum
You cannot vote in polls in this forum
You cannot attach files in this forum
You can download files in this forum
Верим фактам, а не вранью Путина! Факт, что Правительство ведёт Россию к истреблению.
Так как численность населения падает, даже не смотря на приток эмигрантов!
Русская нация вымирает и вырождается, смешиваясь с эмигрантами!
Факт, что военных и граждан предприятий заставляют голосовать за партию Единая Россия и Путина
ПОД СТРАХОМ УВОЛЬНЕНИЯ!
Нам не нужно Правительство, блокирующее личную жизнь, интернет, нарушающее сохранность данных.
Все эти действия финансируются за счёт народа!